Featured TV Shows


The Boys S01E01

Posted By: Tavaz
720p (HD) / WEBRip IMDb
The Boys S01E01

The Boys S01E01
WEBRip | MKV | 1280x544 | English | H265 @ 741 kbps | AAC @ 64 kbps | 1 h 0 min | 350 MiB
Subtitles: Swedish, Telugu, Turkish, Hindi, Dutch, Korean, Danish, Indonesian, Norwegian Bokmal, French, Russian, Thai, Tamil, Finnish, Spanish, English, Italian, Portuguese, Chinese, German, Hebrew, Polish, Arabic


A group of vigilantes known informally as “The Boys” set out to take down corrupt superheroes with no more than blue-collar grit and a willingness to fight dirty.

The.Boys.2019.S01E08.You.Found.Me.720p.10bit.WEBRip.2CH.x265.HEVC-PSA.mkv (283.2 MB)
The.Boys.2019.S01E01.The.Name.of.the.Game.720p.10bit.WEBRip.2CH.x265.HEVC-PSA.mkv (292.6 MB)
The.Boys.2019.S01E07.The.Self-Preservation.Society.720p.10bit.WEBRip.2CH.x265.HEVC-PSA.mkv (251.9 MB)
The.Boys.2019.S01E05.Good.for.the.Soul.720p.10bit.WEBRip.2CH.x265.HEVC-PSA.mkv (349.8 MB)
The.Boys.2019.S01E03.Get.Some.720p.10bit.WEBRip.2CH.x265.HEVC-PSA.mkv (273.9 MB)
The.Boys.2019.S01E02.Cherry.720p.10bit.WEBRip.2CH.x265.HEVC-PSA.mkv (229.9 MB)
The.Boys.2019.S01E04.The.Female.of.the.Species.720p.10bit.WEBRip.2CH.x265.HEVC-PSA.mkv (268.5 MB)
The.Boys.2019.S01E06.The.Innocents.720p.10bit.WEBRip.2CH.x265.HEVC-PSA.mkv (247.1 MB)



General
Unique ID : 144374961276281124228426505355559632700 (0x6C9D9B2A4C69DEDD847CECAB787EFF3C)
Complete name : ./The.Boys.2019.S01E05.Good.for.the.Soul.720p.10bit.WEBRip.2CH.x265.HEVC-PSA.mkv
Format : Matroska
Format version : Version 4 / Version 2
File size : 350 MiB
Duration : 1 h 0 min
Overall bit rate : 812 kb/s
Movie name : PSArips.com | The.Boys.2019.S01E05.Good.for.the.Soul.720p.10bit.WEBRip.2CH.x265.HEVC-PSA
Encoded date : UTC 2019-07-26 13:22:07
Writing application : mkvmerge v35.0.0 ('All The Love In The World') 64-bit
Writing library : libebml v1.3.9 + libmatroska v1.5.2

Video
ID : 1
Format : HEVC
Format/Info : High Efficiency Video Coding
Format profile : Main 10@L3.1@Main
Codec ID : V_MPEGH/ISO/HEVC
Duration : 1 h 0 min
Bit rate : 741 kb/s
Width : 1 280 pixels
Height : 544 pixels
Display aspect ratio : 2.35:1
Frame rate mode : Constant
Frame rate : 23.976 (24000/1001) FPS
Color space : YUV
Chroma subsampling : 4:2:0
Bit depth : 10 bits
Bits/(Pixel*Frame) : 0.044
Stream size : 319 MiB (91%)
Default : Yes
Forced : No

Audio
ID : 2
Format : AAC
Format/Info : Advanced Audio Codec
Format profile : HE-AAC / LC
Format settings : Explicit
Codec ID : A_AAC-2
Duration : 1 h 0 min
Bit rate : 64.7 kb/s
Channel(s) : 2 channels
Channel positions : Front: L R
Sampling rate : 48.0 kHz / 24.0 kHz
Frame rate : 23.438 FPS (1024 SPF)
Compression mode : Lossy
Delay relative to video : 23 ms
Stream size : 27.9 MiB (8%)
Language : English
Default : Yes
Forced : No

Text #1
ID : 3
Format : UTF-8
Codec ID : S_TEXT/UTF8
Codec ID/Info : UTF-8 Plain Text
Duration : 59 min 31 s
Bit rate : 69 b/s
Count of elements : 1057
Stream size : 30.3 KiB (0%)
Language : English
Default : No
Forced : No

Text #2
ID : 4
Format : UTF-8
Codec ID : S_TEXT/UTF8
Codec ID/Info : UTF-8 Plain Text
Duration : 59 min 31 s
Bit rate : 69 b/s
Count of elements : 1061
Stream size : 30.3 KiB (0%)
Title : SDH
Language : English
Default : No
Forced : No

Text #3
ID : 5
Format : UTF-8
Codec ID : S_TEXT/UTF8
Codec ID/Info : UTF-8 Plain Text
Duration : 57 min 56 s
Bit rate : 95 b/s
Count of elements : 809
Stream size : 40.4 KiB (0%)
Language : Arabic
Default : No
Forced : No

Text #4
ID : 6
Format : UTF-8
Codec ID : S_TEXT/UTF8
Codec ID/Info : UTF-8 Plain Text
Duration : 57 min 56 s
Bit rate : 58 b/s
Count of elements : 803
Stream size : 24.9 KiB (0%)
Title : 中文(简体)
Language : Chinese
Default : No
Forced : No

Text #5
ID : 7
Format : UTF-8
Codec ID : S_TEXT/UTF8
Codec ID/Info : UTF-8 Plain Text
Duration : 57 min 56 s
Bit rate : 53 b/s
Count of elements : 809
Stream size : 22.9 KiB (0%)
Title : 中文(繁體)
Language : Chinese
Default : No
Forced : No

Text #6
ID : 8
Format : UTF-8
Codec ID : S_TEXT/UTF8
Codec ID/Info : UTF-8 Plain Text
Duration : 57 min 43 s
Bit rate : 52 b/s
Count of elements : 786
Stream size : 22.3 KiB (0%)
Language : Danish
Default : No
Forced : No

Text #7
ID : 9
Format : UTF-8
Codec ID : S_TEXT/UTF8
Codec ID/Info : UTF-8 Plain Text
Duration : 57 min 44 s
Bit rate : 61 b/s
Count of elements : 699
Stream size : 26.1 KiB (0%)
Language : German
Default : No
Forced : No

Text #8
ID : 10
Format : UTF-8
Codec ID : S_TEXT/UTF8
Codec ID/Info : UTF-8 Plain Text
Duration : 57 min 56 s
Bit rate : 60 b/s
Count of elements : 807
Stream size : 25.7 KiB (0%)
Title : Latinoamérica
Language : Spanish
Default : No
Forced : No

Text #9
ID : 11
Format : UTF-8
Codec ID : S_TEXT/UTF8
Codec ID/Info : UTF-8 Plain Text
Duration : 57 min 56 s
Bit rate : 59 b/s
Count of elements : 806
Stream size : 25.4 KiB (0%)
Title : España
Language : Spanish
Default : No
Forced : No

Text #10
ID : 12
Format : UTF-8
Codec ID : S_TEXT/UTF8
Codec ID/Info : UTF-8 Plain Text
Duration : 57 min 56 s
Bit rate : 58 b/s
Count of elements : 807
Stream size : 25.0 KiB (0%)
Language : Finnish
Default : No
Forced : No

Text #11
ID : 13
Format : UTF-8
Codec ID : S_TEXT/UTF8
Codec ID/Info : UTF-8 Plain Text
Duration : 57 min 56 s
Bit rate : 60 b/s
Count of elements : 800
Stream size : 25.5 KiB (0%)
Language : French
Default : No
Forced : No

Text #12
ID : 14
Format : UTF-8
Codec ID : S_TEXT/UTF8
Codec ID/Info : UTF-8 Plain Text
Duration : 57 min 56 s
Bit rate : 91 b/s
Count of elements : 809
Stream size : 38.6 KiB (0%)
Language : Hebrew
Default : No
Forced : No

Text #13
ID : 15
Format : UTF-8
Codec ID : S_TEXT/UTF8
Codec ID/Info : UTF-8 Plain Text
Duration : 57 min 56 s
Bit rate : 157 b/s
Count of elements : 809
Stream size : 66.7 KiB (0%)
Language : Hindi
Default : No
Forced : No

Text #14
ID : 16
Format : UTF-8
Codec ID : S_TEXT/UTF8
Codec ID/Info : UTF-8 Plain Text
Duration : 57 min 56 s
Bit rate : 53 b/s
Count of elements : 806
Stream size : 22.8 KiB (0%)
Language : Indonesian
Default : No
Forced : No

Text #15
ID : 17
Format : UTF-8
Codec ID : S_TEXT/UTF8
Codec ID/Info : UTF-8 Plain Text
Duration : 57 min 56 s
Bit rate : 62 b/s
Count of elements : 804
Stream size : 26.5 KiB (0%)
Language : Italian
Default : No
Forced : No

Text #16
ID : 18
Format : UTF-8
Codec ID : S_TEXT/UTF8
Codec ID/Info : UTF-8 Plain Text
Duration : 57 min 56 s
Bit rate : 63 b/s
Count of elements : 809
Stream size : 26.8 KiB (0%)
Language : Korean
Default : No
Forced : No

Text #17
ID : 19
Format : UTF-8
Codec ID : S_TEXT/UTF8
Codec ID/Info : UTF-8 Plain Text
Duration : 57 min 43 s
Bit rate : 60 b/s
Count of elements : 805
Stream size : 25.5 KiB (0%)
Language : Norwegian Bokmal
Default : No
Forced : No

Text #18
ID : 20
Format : UTF-8
Codec ID : S_TEXT/UTF8
Codec ID/Info : UTF-8 Plain Text
Duration : 57 min 43 s
Bit rate : 59 b/s
Count of elements : 776
Stream size : 25.3 KiB (0%)
Language : Dutch
Default : No
Forced : No

Text #19
ID : 21
Format : UTF-8
Codec ID : S_TEXT/UTF8
Codec ID/Info : UTF-8 Plain Text
Duration : 57 min 56 s
Bit rate : 58 b/s
Count of elements : 800
Stream size : 24.9 KiB (0%)
Language : Polish
Default : No
Forced : No

Text #20
ID : 22
Format : UTF-8
Codec ID : S_TEXT/UTF8
Codec ID/Info : UTF-8 Plain Text
Duration : 57 min 43 s
Bit rate : 58 b/s
Count of elements : 805
Stream size : 24.9 KiB (0%)
Language : Portuguese
Default : No
Forced : No

Text #21
ID : 23
Format : UTF-8
Codec ID : S_TEXT/UTF8
Codec ID/Info : UTF-8 Plain Text
Duration : 57 min 56 s
Bit rate : 106 b/s
Count of elements : 806
Stream size : 45.1 KiB (0%)
Language : Russian
Default : No
Forced : No

Text #22
ID : 24
Format : UTF-8
Codec ID : S_TEXT/UTF8
Codec ID/Info : UTF-8 Plain Text
Duration : 57 min 56 s
Bit rate : 60 b/s
Count of elements : 801
Stream size : 25.8 KiB (0%)
Language : Swedish
Default : No
Forced : No

Text #23
ID : 25
Format : UTF-8
Codec ID : S_TEXT/UTF8
Codec ID/Info : UTF-8 Plain Text
Duration : 57 min 56 s
Bit rate : 176 b/s
Count of elements : 809
Stream size : 75.1 KiB (0%)
Language : Tamil
Default : No
Forced : No

Text #24
ID : 26
Format : UTF-8
Codec ID : S_TEXT/UTF8
Codec ID/Info : UTF-8 Plain Text
Duration : 57 min 56 s
Bit rate : 153 b/s
Count of elements : 809
Stream size : 65.3 KiB (0%)
Language : Telugu
Default : No
Forced : No

Text #25
ID : 27
Format : UTF-8
Codec ID : S_TEXT/UTF8
Codec ID/Info : UTF-8 Plain Text
Duration : 57 min 56 s
Bit rate : 140 b/s
Count of elements : 809
Stream size : 59.4 KiB (0%)
Language : Thai
Default : No
Forced : No

Text #26
ID : 28
Format : UTF-8
Codec ID : S_TEXT/UTF8
Codec ID/Info : UTF-8 Plain Text
Duration : 57 min 56 s
Bit rate : 57 b/s
Count of elements : 805
Stream size : 24.3 KiB (0%)
Language : Turkish
Default : No
Forced : No

Menu
00:00:00.000 : en:Amazon Original
00:00:05.000 : en:Ratings
00:00:15.000 : en:Popclaw comes clean
00:03:50.000 : en:A-Train goes to Homelander for help
00:05:19.000 : en:Title Sequence
00:05:25.000 : en:Frenchie just wants to help
00:06:28.000 : en:"Believe" faith festival
00:11:53.000 : en:A memorial for the lives lost
00:14:14.000 : en:Faith festival's seem to have changed
00:16:18.000 : en:Divine intervention or random chaos
00:17:27.000 : en:Starlight is feeling the pressure
00:19:23.000 : en:The importance of boundaries
00:22:11.000 : en:Billy confronts Rachel
00:24:12.000 : en:A-Train reminisces about Popclaw
00:25:59.000 : en:Hughie attends Ezekiel's event
00:28:59.000 : en:Blackmail is not cake
00:32:35.000 : en:Billy takes his anger out
00:33:28.000 : en:Hero worship
00:35:47.000 : en:Queen Maeve visits an old friend
00:39:16.000 : en:Cherie gives Frenchie the heads up
00:39:44.000 : en:Scene 21
00:40:53.000 : en:Starlight pleads to her mother
00:42:18.000 : en:Frenchie isn't good at following orders
00:43:45.000 : en:Going off script
00:47:46.000 : en:Billy figures it out
00:48:31.000 : en:Hughie comes clean
00:50:42.000 : en:A diabolical weapon
00:52:08.000 : en:Madelyn confronts Homelander
00:55:00.000 : en:Frenchie needs a miracle
00:58:15.000 : en:End Credits





The Boys S01E01


The Boys S01E01


The Boys S01E01


The Boys S01E01


The Boys S01E01

All episodes