The Curse of Oak Island S05E08

Posted By: Tavaz
1080p (FullHD) / WEBRip IMDb
The Curse of Oak Island S05E08

The Curse of Oak Island S05E08
WEBRip | MKV | 1920x1080 | English | H264 @ 12133 kbps | E-AC-3 @ 224 kbps | 42 min 9 s | 3.64 GiB
Subtitles: English
Genre: Mystery, Documentary

The Curse of Oak Island follows brothers Marty and Rick Lagina originally from Kingsford, Michigan through their effort to find the speculated - and as of yet undiscovered - buried treasure believed to have been concealed through extraordinary means on Oak Island. The brothers became fascinated with the island after reading the January, 1965 issue of Reader's Digest magazine which featured an article on the Restall family's work to solve the mystery of the so-called "Money Pit."

No one knows what's buried at Oak Island. Theories range from pirate treasure to Shakespeare's Lost Folios to a priceless religious artifact brought over by the Knights Templar. The myths of the island have proven irresistible to many, including historical figures like John Wayne, Errol Flynn and Franklin D. Roosevelt, who all financed or took part in digs in what's become one of the longest treasure hunts in history.

The.Curse.of.Oak.Island.S05E08.Dan's.Breakthrough.1080p.AMZN.WEB-DL.DDP2.0.H.264-NTb.mkv (3.6 GB)



General
Unique ID : 83514835444139882125382163286303850805 (0x3ED45F4B016CEF4D48E8AEE9386A4135)
Complete name : ./The.Curse.of.Oak.Island.S05E08.Dan's.Breakthrough.1080p.AMZN.WEB-DL.DDP2.0.H.264-NTb.mkv
Format : Matroska
Format version : Version 4 / Version 2
File size : 3.64 GiB
Duration : 42 min 9 s
Overall bit rate mode : Variable
Overall bit rate : 12.4 Mb/s
Encoded date : UTC 2018-01-06 04:35:49
Writing application : mkvmerge v19.0.0 ('Brave Captain') 64-bit
Writing library : libebml v1.3.5 + libmatroska v1.4.8

Video
ID : 1
Format : AVC
Format/Info : Advanced Video Codec
Format profile : High@L4
Format settings : CABAC / 4 Ref Frames
Format settings, CABAC : Yes
Format settings, RefFrames : 4 frames
Codec ID : V_MPEG4/ISO/AVC
Duration : 42 min 9 s
Bit rate mode : Variable
Bit rate : 12.1 Mb/s
Maximum bit rate : 15.0 Mb/s
Width : 1 920 pixels
Height : 1 080 pixels
Display aspect ratio : 16:9
Frame rate mode : Constant
Frame rate : 23.976 (24000/1001) FPS
Color space : YUV
Chroma subsampling : 4:2:0
Bit depth : 8 bits
Scan type : Progressive
Bits/(Pixel*Frame) : 0.244
Stream size : 3.57 GiB (98%)
Default : Yes
Forced : No
Color range : Limited
Color primaries : BT.709
Transfer characteristics : BT.709
Matrix coefficients : BT.709

Audio
ID : 2
Format : E-AC-3
Format/Info : Enhanced Audio Coding 3
Format settings, Endianness : Big
Codec ID : A_EAC3
Duration : 42 min 9 s
Bit rate mode : Constant
Bit rate : 224 kb/s
Channel(s) : 2 channels
Channel positions : Front: L R
Sampling rate : 48.0 kHz
Frame rate : 187.500 FPS (256 SPF)
Compression mode : Lossy
Stream size : 67.5 MiB (2%)
Language : English
Service kind : Complete Main
Default : Yes
Forced : No

Text #1
ID : 3
Format : UTF-8
Codec ID : S_TEXT/UTF8
Codec ID/Info : UTF-8 Plain Text
Duration : 42 min 3 s
Bit rate : 103 b/s
Count of elements : 888
Stream size : 31.9 KiB (0%)
Language : English
Default : No
Forced : No

Text #2
ID : 4
Format : UTF-8
Codec ID : S_TEXT/UTF8
Codec ID/Info : UTF-8 Plain Text
Duration : 42 min 3 s
Bit rate : 106 b/s
Count of elements : 902
Stream size : 32.7 KiB (0%)
Title : SDH
Language : English
Default : No
Forced : No





The Curse of Oak Island S05E08


The Curse of Oak Island S05E08


The Curse of Oak Island S05E08


Jurowski, Barcellona, Pratt, Mihai, Daliotti - Rossini: Adelaide Di Borgogna (2013)


Jurowski, Barcellona, Pratt, Mihai, Daliotti - Rossini: Adelaide Di Borgogna (2013)

All episodes