The Curse of Oak Island S05E10

Posted By: Tavaz
720p (HD) / HDTV IMDb
The Curse of Oak Island S05E10

The Curse of Oak Island S05E10
HDTV | MKV | 1280x720 | English | H264 @ 3561 kbps | AC-3 @ 384 kbps | 41 min 57 s | 1.18 GiB
Genre: Mystery, Documentary

The Curse of Oak Island follows brothers Marty and Rick Lagina originally from Kingsford, Michigan through their effort to find the speculated - and as of yet undiscovered - buried treasure believed to have been concealed through extraordinary means on Oak Island. The brothers became fascinated with the island after reading the January, 1965 issue of Reader's Digest magazine which featured an article on the Restall family's work to solve the mystery of the so-called "Money Pit."

No one knows what's buried at Oak Island. Theories range from pirate treasure to Shakespeare's Lost Folios to a priceless religious artifact brought over by the Knights Templar. The myths of the island have proven irresistible to many, including historical figures like John Wayne, Errol Flynn and Franklin D. Roosevelt, who all financed or took part in digs in what's become one of the longest treasure hunts in history.

b58f71bc71b24e838c79bf28fbd08390.mkv (1.2 GB)



General
Unique ID : 32836516228133010752598001793394102675 (0x18B4153EA80E7F6772F96971234D5193)
Complete name : ./b58f71bc71b24e838c79bf28fbd08390.mkv
Format : Matroska
Format version : Version 4 / Version 2
File size : 1.18 GiB
Duration : 41 min 57 s
Overall bit rate : 4 026 kb/s
Encoded date : UTC 2018-01-17 07:26:14
Writing application : mkvmerge v9.0.1 ('Obstacles') 64bit
Writing library : libebml v1.3.3 + libmatroska v1.4.4

Video
ID : 1
Format : AVC
Format/Info : Advanced Video Codec
Format profile : High@L4.1
Format settings : CABAC / 5 Ref Frames
Format settings, CABAC : Yes
Format settings, RefFrames : 5 frames
Codec ID : V_MPEG4/ISO/AVC
Duration : 41 min 57 s
Bit rate : 3 562 kb/s
Width : 1 280 pixels
Height : 720 pixels
Display aspect ratio : 16:9
Frame rate mode : Constant
Frame rate : 23.976 (24000/1001) FPS
Color space : YUV
Chroma subsampling : 4:2:0
Bit depth : 8 bits
Scan type : Progressive
Bits/(Pixel*Frame) : 0.161
Stream size : 1.04 GiB (88%)
Writing library : x264 core 155 r2893 b00bcaf
Encoding settings : cabac=1 / ref=5 / deblock=1:0:0 / analyse=0x3:0x113 / me=hex / subme=8 / psy=1 / psy_rd=1.00:0.00 / mixed_ref=1 / me_range=16 / chroma_me=1 / trellis=2 / 8x8dct=1 / cqm=0 / deadzone=21,11 / fast_pskip=1 / chroma_qp_offset=-2 / threads=22 / lookahead_threads=3 / sliced_threads=0 / nr=0 / decimate=1 / interlaced=0 / bluray_compat=0 / constrained_intra=0 / bframes=3 / b_pyramid=2 / b_adapt=1 / b_bias=0 / direct=3 / weightb=1 / open_gop=0 / weightp=2 / keyint=250 / keyint_min=23 / scenecut=40 / intra_refresh=0 / rc_lookahead=50 / rc=crf / mbtree=1 / crf=20.0 / qcomp=0.60 / qpmin=0 / qpmax=69 / qpstep=4 / ip_ratio=1.40 / aq=1:1.00
Default : Yes
Forced : No
Color range : Limited
Matrix coefficients : BT.709

Audio
ID : 2
Format : AC-3
Format/Info : Audio Coding 3
Format settings, Endianness : Big
Codec ID : A_AC3
Duration : 41 min 57 s
Bit rate mode : Constant
Bit rate : 384 kb/s
Channel(s) : 6 channels
Channel positions : Front: L C R, Side: L R, LFE
Sampling rate : 48.0 kHz
Frame rate : 31.250 FPS (1536 SPF)
Bit depth : 16 bits
Compression mode : Lossy
Stream size : 115 MiB (10%)
Service kind : Complete Main
Default : Yes
Forced : No





The Curse of Oak Island S05E10


The Curse of Oak Island S05E10


The Curse of Oak Island S05E10


The Curse of Oak Island S05E10


The Curse of Oak Island S05E10

All episodes