Featured TV Shows


The Good Fight S03E10

Posted By: Tavaz
1080p (FullHD) / WEBRip IMDb
The Good Fight S03E10

The Good Fight S03E10
WEBRip | MKV | 1920x1080 | English | H264 @ 4468 kbps | AAC @ 125 kbps | 55 min 45 s | 1.79 GiB
Subtitles: English
Genre: Drama


Picking up one year after the events of the final broadcast episode of "The Good Wife", an enormous financial scam has destroyed the reputation of a young lawyer, Maia Rindell, while simultaneously wiping out her mentor and godmother Diane Lockhart's savings. Forced out of her law firm, now called "Lockhart, Deckler, Gussman, Lee, Lyman, Gilbert, Lurie, Kagan, Tannebaum & Associates", they join Lucca Quinn at one of Chicago's preeminent law firms.

the.good.fight.s03e10.internal.1080p.web.h264-bamboozle.mkv (1.8 GB)



General
Unique ID : 45327198044703897873512108914226872994 (0x2219B367B0DA918C28855B178071C2A2)
Complete name : ./the.good.fight.s03e10.internal.1080p.web.h264-bamboozle.mkv
Format : Matroska
Format version : Version 4 / Version 2
File size : 1.79 GiB
Duration : 55 min 45 s
Overall bit rate : 4 597 kb/s
Encoded date : UTC 2019-05-16 06:20:54
Writing application : mkvmerge v29.0.0 ('Like It Or Not') 64-bit
Writing library : libebml v1.3.6 + libmatroska v1.4.9

Video
ID : 1
Format : AVC
Format/Info : Advanced Video Codec
Format profile : High@L4
Format settings : CABAC / 4 Ref Frames
Format settings, CABAC : Yes
Format settings, RefFrames : 4 frames
Format settings, GOP : M=4, N=48
Codec ID : V_MPEG4/ISO/AVC
Duration : 55 min 45 s
Bit rate : 4 469 kb/s
Width : 1 920 pixels
Height : 1 080 pixels
Display aspect ratio : 16:9
Frame rate mode : Constant
Frame rate : 23.976 (24000/1001) FPS
Color space : YUV
Chroma subsampling : 4:2:0
Bit depth : 8 bits
Scan type : Progressive
Bits/(Pixel*Frame) : 0.090
Stream size : 1.74 GiB (97%)
Language : English
Default : Yes
Forced : No
Color range : Limited
Color primaries : BT.709
Transfer characteristics : BT.709
Matrix coefficients : BT.709

Audio
ID : 2
Format : AAC
Format/Info : Advanced Audio Codec
Format profile : LC
Codec ID : A_AAC-2
Duration : 55 min 45 s
Bit rate : 125 kb/s
Channel(s) : 2 channels
Channel positions : Front: L R
Sampling rate : 48.0 kHz
Frame rate : 46.875 FPS (1024 SPF)
Compression mode : Lossy
Delay relative to video : 13 ms
Stream size : 50.0 MiB (3%)
Default : Yes
Forced : No

Text
ID : 3
Format : UTF-8
Codec ID : S_TEXT/UTF8
Codec ID/Info : UTF-8 Plain Text
Duration : 54 min 51 s
Bit rate : 86 b/s
Count of elements : 1244
Stream size : 34.9 KiB (0%)
Language : English
Default : No
Forced : No





The Good Fight S03E10


The Good Fight S03E10


The Good Fight S03E10


The Good Fight S03E10


The Good Fight S03E10

All episodes