The Handmaid's Tale S02E05

Posted By: Tavaz
1080p (FullHD) / BDRip IMDb
The Handmaid's Tale S02E05

The Handmaid's Tale S02E05

Set in a dystopian future, a woman is forced to live as a concubine under a fundamentalist theocratic dictatorship. A TV adaptation of Margaret Atwood's novel.

The.Handmaids.Tale.S02E05.Seeds.1080p.BluRay.REMUX.AVC.DTS-HD.MA.5.1-EPSiLON=3f0df7989abdf829b27dbe09af9e6b7bafcca456.part1.rar (4.8 GB)
The.Handmaids.Tale.S02E05.Seeds.1080p.BluRay.REMUX.AVC.DTS-HD.MA.5.1-EPSiLON=3f0df7989abdf829b27dbe09af9e6b7bafcca456.part2.rar (4.5 GB)



General
Unique ID : 42413589679012131354832463574732649807 (0x1FE88F6BF73A06FA07932A4A748C354F)
Complete name : ./b4bb53e7c3b4476393d50e7a4e329564.mkv
Format : Matroska
Format version : Version 4 / Version 2
File size : 9.23 GiB
Duration : 51 min 46 s
Overall bit rate mode : Variable
Overall bit rate : 25.5 Mb/s
Movie name : The Handmaid's Tale - S02E05 - Seeds
Encoded date : UTC 2018-12-05 09:48:49
Writing application : mkvmerge v28.2.0 ('The Awakening') 64-bit
Writing library : libebml v1.3.6 + libmatroska v1.4.9

Video
ID : 1
Format : AVC
Format/Info : Advanced Video Codec
Format profile : High@L4.1
Format settings : CABAC / 4 Ref Frames
Format settings, CABAC : Yes
Format settings, RefFrames : 4 frames
Codec ID : V_MPEG4/ISO/AVC
Duration : 51 min 46 s
Bit rate mode : Variable
Bit rate : 22.7 Mb/s
Maximum bit rate : 39.0 Mb/s
Width : 1 920 pixels
Height : 1 080 pixels
Display aspect ratio : 16:9
Frame rate mode : Constant
Frame rate : 23.976 (24000/1001) FPS
Color space : YUV
Chroma subsampling : 4:2:0
Bit depth : 8 bits
Scan type : Progressive
Bits/(Pixel*Frame) : 0.457
Stream size : 8.21 GiB (89%)
Title : MPEG-4 AVC Video / 22990 kbps / 1080p / 23.976 fps / 16:9 / High Profile 4.1
Language : English
Default : Yes
Forced : No

Audio
ID : 2
Format : DTS
Format/Info : Digital Theater Systems
Format profile : MA / Core
Mode : 16
Format settings, Endianness : Big
Codec ID : A_DTS
Duration : 51 min 46 s
Bit rate mode : Variable / Constant
Bit rate : 2 733 kb/s / 1 509 kb/s
Channel(s) : 6 channels
Channel positions : Front: L C R, Side: L R, LFE
Sampling rate : 48.0 kHz
Frame rate : 93.750 FPS (512 SPF)
Bit depth : 24 bits
Compression mode : Lossless / Lossy
Stream size : 1 012 MiB (11%)
Title : DTS-HD Master Audio / 5.1 / 48 kHz / 2733 kbps / 24-bit
Language : English
Default : Yes
Forced : No

Text #1
ID : 3
Format : PGS
Codec ID : S_HDMV/PGS
Codec ID/Info : Picture based subtitle format used on BDs/HD-DVDs
Duration : 50 min 8 s
Bit rate : 25.8 kb/s
Count of elements : 1002
Stream size : 9.27 MiB (0%)
Title : SDH
Language : English
Default : No
Forced : No

Text #2
ID : 4
Format : PGS
Codec ID : S_HDMV/PGS
Codec ID/Info : Picture based subtitle format used on BDs/HD-DVDs
Duration : 51 min 35 s
Bit rate : 19.8 kb/s
Count of elements : 844
Stream size : 7.30 MiB (0%)
Language : French
Default : No
Forced : No

Text #3
ID : 5
Format : PGS
Codec ID : S_HDMV/PGS
Codec ID/Info : Picture based subtitle format used on BDs/HD-DVDs
Duration : 51 min 29 s
Bit rate : 23.9 kb/s
Count of elements : 876
Stream size : 8.80 MiB (0%)
Language : German
Default : No
Forced : No

Text #4
ID : 6
Format : PGS
Codec ID : S_HDMV/PGS
Codec ID/Info : Picture based subtitle format used on BDs/HD-DVDs
Duration : 50 min 7 s
Bit rate : 20.7 kb/s
Count of elements : 770
Stream size : 7.44 MiB (0%)
Title : Latin American
Language : Spanish
Default : No
Forced : No

Menu
00:00:00.000 : en:Chapter 1
00:01:09.111 : en:Chapter 2
00:05:18.735 : en:Chapter 3
00:08:26.715 : en:Chapter 4
00:11:52.045 : en:Chapter 5
00:17:12.657 : en:Chapter 6
00:21:54.647 : en:Chapter 7
00:27:37.573 : en:Chapter 8
00:32:06.174 : en:Chapter 9
00:38:23.468 : en:Chapter 10
00:42:30.715 : en:Chapter 11
00:50:14.511 : en:Chapter 12





The Handmaid's Tale S02E05


The Handmaid's Tale S02E05


The Handmaid's Tale S02E05


The Handmaid's Tale S02E05


The Handmaid's Tale S02E05

All episodes