Please register here if you want to download anything!

If domain in your address bar is different from the list below
PLEASE LEAVE THAT SITE IMMEDIATELY
❗IT'S A DANGEROUS FAKE❗



Spicy Magazines for Men! ;-)

Featured TV Shows


The Magicians S04E13

Posted By: Tavaz
720p (HD) / WEB-DL IMDb
The Magicians S04E13

The Magicians S04E13
WEB-DL | MKV | 1280x720 | English | H264 @ 2920 kbps | E-AC-3 @ 640 kbps | 44 min 9 s | 1.10 GiB
Subtitles: English
Genre: Drama, Fantasy, Horror


Brakebills University is a secret institution specializing in magic. There, amidst an unorthodox education of spellcasting, a group of twenty-something friends soon discover that a magical fantasy world they read about as children is all too real— and poses grave danger to humanity.

0db9b00db6244ae1baebde974c39f489.mkv (1.1 GB)



General
Unique ID : 200608927133814492749830660808696617718 (0x96EBDFBDAACA5DD5782FD83B90475AF6)
Complete name : ./0db9b00db6244ae1baebde974c39f489.mkv
Format : Matroska
Format version : Version 4 / Version 2
File size : 1.10 GiB
Duration : 44 min 9 s
Overall bit rate : 3 562 kb/s
Encoded date : UTC 2019-04-18 07:08:22
Writing application : mkvmerge v21.0.0 ('Tardigrades Will Inherit The Earth') 64-bit
Writing library : libebml v1.3.5 + libmatroska v1.4.8

Video
ID : 1
Format : AVC
Format/Info : Advanced Video Codec
Format profile : High@L3.1
Format settings : CABAC / 4 Ref Frames
Format settings, CABAC : Yes
Format settings, RefFrames : 4 frames
Codec ID : V_MPEG4/ISO/AVC
Duration : 44 min 9 s
Bit rate mode : Constant
Bit rate : 2 920 kb/s
Nominal bit rate : 6 000 kb/s
Width : 1 280 pixels
Height : 720 pixels
Display aspect ratio : 16:9
Frame rate mode : Constant
Frame rate : 23.976 (24000/1001) FPS
Color space : YUV
Chroma subsampling : 4:2:0
Bit depth : 8 bits
Scan type : Progressive
Bits/(Pixel*Frame) : 0.132
Stream size : 922 MiB (82%)
Default : Yes
Forced : No
Color range : Limited
Color primaries : BT.709
Transfer characteristics : BT.709
Matrix coefficients : BT.709

Audio
ID : 2
Format : E-AC-3
Format/Info : Enhanced Audio Coding 3
Format settings, Endianness : Big
Codec ID : A_EAC3
Duration : 44 min 9 s
Bit rate mode : Constant
Bit rate : 640 kb/s
Channel(s) : 6 channels
Channel positions : Front: L C R, Side: L R, LFE
Sampling rate : 48.0 kHz
Frame rate : 187.500 FPS (256 SPF)
Compression mode : Lossy
Stream size : 202 MiB (18%)
Language : English
Service kind : Complete Main
Default : Yes
Forced : No

Text #1
ID : 3
Format : UTF-8
Codec ID : S_TEXT/UTF8
Codec ID/Info : UTF-8 Plain Text
Duration : 42 min 55 s
Bit rate : 64 b/s
Count of elements : 707
Stream size : 20.2 KiB (0%)
Language : English
Default : No
Forced : No

Text #2
ID : 4
Format : UTF-8
Codec ID : S_TEXT/UTF8
Codec ID/Info : UTF-8 Plain Text
Duration : 43 min 33 s
Bit rate : 68 b/s
Count of elements : 823
Stream size : 21.8 KiB (0%)
Title : SDH
Language : English
Default : No
Forced : No





The Magicians S04E13


The Magicians S04E13


The Magicians S04E13


The Magicians S04E13


The Magicians S04E13

All episodes