Featured TV Shows


The Nevers S01E04

Posted By: Tavaz
720p (HD) / WEBRip IMDb
The Nevers S01E04

The Nevers S01E04
WEBRip | MKV | 1280x720 | English | H264 @ 3485 kbps | E-AC-3 @ 640 kbps | 1 h 5 min | 1.92 GiB
Subtitles: English
Genre: Drama


In the last years of Victoria's reign, London is beset by the "Touched": people — mostly women — who suddenly manifest abnormal abilities, some charming, some very disturbing. Among them are Amalia True, a mysterious, quick-fisted widow, and Penance Adair, a brilliant young inventor. They are the champions of this new underclass, making a home for the Touched, while fighting the forces of… well, pretty much all the forces — to make room for those whom history as we know it has no place.

7dee4687f11e4d8f9d580f60add60b4d.mkv (1.9 GB)



General
Unique ID : 103017407832555599227604291160317273185 (0x4D806E598A7E695FCCABD288F0AAA461)
Complete name : ./7dee4687f11e4d8f9d580f60add60b4d.mkv
Format : Matroska
Format version : Version 4 / Version 2
File size : 1.92 GiB
Duration : 1 h 5 min
Overall bit rate : 4 209 kb/s
Writing application : mkvmerge v49.0.0 ('Sick Of Losing Soulmates') 64-bit
Writing library : libebml v1.4.0 + libmatroska v1.6.1

Video
ID : 1
Format : AVC
Format/Info : Advanced Video Codec
Format profile : High@L3.1
Format settings : CABAC / 4 Ref Frames
Format settings, CABAC : Yes
Format settings, RefFrames : 4 frames
Codec ID : V_MPEG4/ISO/AVC
Duration : 1 h 5 min
Bit rate mode : Constant
Bit rate : 3 485 kb/s
Nominal bit rate : 6 000 kb/s
Width : 1 280 pixels
Height : 720 pixels
Display aspect ratio : 16:9
Frame rate mode : Constant
Frame rate : 23.976 (24000/1001) FPS
Color space : YUV
Chroma subsampling : 4:2:0
Bit depth : 8 bits
Scan type : Progressive
Bits/(Pixel*Frame) : 0.158
Stream size : 1.59 GiB (83%)
Default : Yes
Forced : No
Color range : Limited
Color primaries : BT.709
Transfer characteristics : BT.709
Matrix coefficients : BT.709

Audio
ID : 2
Format : E-AC-3
Format/Info : Enhanced Audio Coding 3
Format settings, Endianness : Big
Codec ID : A_EAC3
Duration : 1 h 5 min
Bit rate mode : Constant
Bit rate : 640 kb/s
Channel(s) : 6 channels
Channel positions : Front: L C R, Side: L R, LFE
Sampling rate : 48.0 kHz
Frame rate : 187.500 FPS (256 SPF)
Compression mode : Lossy
Delay relative to video : 24 ms
Stream size : 300 MiB (15%)
Language : English
Service kind : Complete Main
Default : Yes
Forced : No

Text
ID : 3
Format : UTF-8
Codec ID : S_TEXT/UTF8
Codec ID/Info : UTF-8 Plain Text
Language : English
Default : No
Forced : No





The Nevers S01E04


The Nevers S01E04


The Nevers S01E04


The Nevers S01E04


The Nevers S01E04

All episodes