Featured TV Shows


The Outsider S01E01-E02

Posted By: Tavaz
1080p (FullHD) / WEBRip IMDb
The Outsider S01E01-E02

The Outsider S01E01-E02
WEBRip | MKV | 1920x1080 | English | H264 @ 6375 kbps | E-AC-3 @ 640 kbps | 59 min 50 s | 2x2.99 GiB
Subtitles: English
Genre: Mystery, Drama, Crime

When an insidious supernatural force edges its way into a seemingly straightforward investigation into the gruesome murder of a young boy, it leads a seasoned cop and an unorthodox investigator to question everything they believe in.

d2176ecde160d7a5979dacf82f4bcef7.mkv (3.0 GB)



General
Unique ID : 127668294722343937919242120261394043189 (0x600C04E8AEDCEDC7A5AE077893ED1135)
Complete name : ./d2176ecde160d7a5979dacf82f4bcef7.mkv
Format : Matroska
Format version : Version 4 / Version 2
File size : 2.99 GiB
Duration : 59 min 50 s
Overall bit rate : 7 158 kb/s
Writing application : mkvmerge v40.0.0 ('Old Town Road + Pony') 64-bit
Writing library : libebml v1.3.9 + libmatroska v1.5.2

Video
ID : 1
Format : AVC
Format/Info : Advanced Video Codec
Format profile : High@L4
Format settings : CABAC / 4 Ref Frames
Format settings, CABAC : Yes
Format settings, RefFrames : 4 frames
Codec ID : V_MPEG4/ISO/AVC
Duration : 59 min 50 s
Bit rate mode : Constant
Bit rate : 6 375 kb/s
Nominal bit rate : 10 000 kb/s
Width : 1 920 pixels
Height : 1 080 pixels
Display aspect ratio : 16:9
Frame rate mode : Constant
Frame rate : 23.976 (24000/1001) FPS
Color space : YUV
Chroma subsampling : 4:2:0
Bit depth : 8 bits
Scan type : Progressive
Bits/(Pixel*Frame) : 0.128
Stream size : 2.66 GiB (89%)
Default : Yes
Forced : No
Color range : Limited
Color primaries : BT.709
Transfer characteristics : BT.709
Matrix coefficients : BT.709

Audio
ID : 2
Format : E-AC-3
Format/Info : Enhanced Audio Coding 3
Format settings, Endianness : Big
Codec ID : A_EAC3
Duration : 59 min 50 s
Bit rate mode : Constant
Bit rate : 640 kb/s
Channel(s) : 6 channels
Channel positions : Front: L C R, Side: L R, LFE
Sampling rate : 48.0 kHz
Frame rate : 187.500 FPS (256 SPF)
Compression mode : Lossy
Delay relative to video : -2 s 16 ms
Stream size : 274 MiB (9%)
Language : English
Service kind : Complete Main
Default : Yes
Forced : No

Text
ID : 3
Format : UTF-8
Codec ID : S_TEXT/UTF8
Codec ID/Info : UTF-8 Plain Text
Title : English
Language : English
Default : No
Forced : No





The Outsider S01E01-E02


The Outsider S01E01-E02


The Outsider S01E01-E02


The Outsider S01E01-E02

All episodes