Featured TV Shows


The Son S02E08

Posted By: Tavaz
1080p (FullHD) / WEBRip IMDb
The Son S02E08

The Son S02E08
WEBRip | MKV | 1920x1080 | English | H264 @ 5000 kbps | AAC @ 125 kbps | 43 min 9 s | 1.54 GiB
Genre: Drama


The multigenerational epic follows two concurrent time periods: One, the story of young Eli McCullough after he is kidnapped and indoctrinated into a tribe of Comanches in 1849. The other, 60 years later, when we see a grown Eli struggle to maintain his family’s cattle empire during the turbulent Bandit Wars of South Texas. Based on Philipp Meyer’s acclaimed novel.

the.son.s02e08.1080p.web.h264-tbs.mkv (1.5 GB)



General
Unique ID : 329020051591854672021421925057993230870 (0xF786F4FBC0FB1DADF57FBA1560B9CA16)
Complete name : ./the.son.s02e08.1080p.web.h264-tbs.mkv
Format : Matroska
Format version : Version 4 / Version 2
File size : 1.54 GiB
Duration : 43 min 9 s
Overall bit rate : 5 117 kb/s
Encoded date : UTC 2019-06-16 02:01:55
Writing application : mkvmerge v24.0.0 ('Beyond The Pale') 64-bit
Writing library : libebml v1.3.6 + libmatroska v1.4.9

Video
ID : 1
Format : AVC
Format/Info : Advanced Video Codec
Format profile : High@L4
Format settings : CABAC / 3 Ref Frames
Format settings, CABAC : Yes
Format settings, RefFrames : 3 frames
Codec ID : V_MPEG4/ISO/AVC
Duration : 43 min 9 s
Bit rate mode : Constant
Bit rate : 5 000 kb/s
Width : 1 920 pixels
Height : 1 080 pixels
Display aspect ratio : 16:9
Frame rate mode : Constant
Frame rate : 23.976 (24000/1001) FPS
Color space : YUV
Chroma subsampling : 4:2:0
Bit depth : 8 bits
Scan type : Progressive
Bits/(Pixel*Frame) : 0.101
Stream size : 1.50 GiB (98%)
Default : Yes
Forced : No

Audio
ID : 2
Format : AAC
Format/Info : Advanced Audio Codec
Format profile : LC
Codec ID : A_AAC-2
Duration : 43 min 9 s
Bit rate : 126 kb/s
Channel(s) : 2 channels
Channel positions : Front: L R
Sampling rate : 44.1 kHz
Frame rate : 43.066 FPS (1024 SPF)
Compression mode : Lossy
Delay relative to video : -36 ms
Stream size : 38.8 MiB (2%)
Default : Yes
Forced : No





The Son S02E08


The Son S02E08


The Son S02E08


The Son S02E08


The Son S02E08

All episodes