Featured TV Shows


The Son S02E09

Posted By: Tavaz
720p (HD) / WEBRip IMDb
The Son S02E09

The Son S02E09
WEBRip | MKV | 1280x720 | English | H264 @ 2499 kbps | AAC @ 93 kbps | 43 min 2 s | 796 MiB
Genre: Drama


The multigenerational epic follows two concurrent time periods: One, the story of young Eli McCullough after he is kidnapped and indoctrinated into a tribe of Comanches in 1849. The other, 60 years later, when we see a grown Eli struggle to maintain his family’s cattle empire during the turbulent Bandit Wars of South Texas. Based on Philipp Meyer’s acclaimed novel.

cfadde388f774804a201c9b60fc7b90a.mkv (796.2 MB)



General
Unique ID : 224136747451903811470748488416553142074 (0xA89F2AD7CFAD0F442DB8A545C09D073A)
Complete name : ./cfadde388f774804a201c9b60fc7b90a.mkv
Format : Matroska
Format version : Version 4 / Version 2
File size : 796 MiB
Duration : 43 min 2 s
Overall bit rate : 2 587 kb/s
Encoded date : UTC 2019-06-23 02:05:21
Writing application : mkvmerge v29.0.0 ('Like It Or Not') 64-bit
Writing library : libebml v1.3.6 + libmatroska v1.4.9

Video
ID : 1
Format : AVC
Format/Info : Advanced Video Codec
Format profile : Main@L3.1
Format settings : CABAC / 3 Ref Frames
Format settings, CABAC : Yes
Format settings, RefFrames : 3 frames
Codec ID : V_MPEG4/ISO/AVC
Duration : 43 min 1 s
Bit rate mode : Constant
Bit rate : 2 500 kb/s
Width : 1 280 pixels
Height : 720 pixels
Display aspect ratio : 16:9
Frame rate mode : Constant
Frame rate : 23.976 (24000/1001) FPS
Color space : YUV
Chroma subsampling : 4:2:0
Bit depth : 8 bits
Scan type : Progressive
Bits/(Pixel*Frame) : 0.113
Stream size : 767 MiB (96%)
Default : Yes
Forced : No

Audio
ID : 2
Format : AAC
Format/Info : Advanced Audio Codec
Format profile : LC
Codec ID : A_AAC-2
Duration : 43 min 2 s
Bit rate : 93.6 kb/s
Channel(s) : 2 channels
Channel positions : Front: L R
Sampling rate : 44.1 kHz
Frame rate : 43.066 FPS (1024 SPF)
Compression mode : Lossy
Delay relative to video : -36 ms
Stream size : 28.8 MiB (4%)
Default : Yes
Forced : No





The Son S02E09


The Son S02E09


The Son S02E09


The Son S02E09


The Son S02E09

All episodes