Featured TV Shows


The Son S02E10

Posted By: Tavaz
720p (HD) / WEBRip IMDb
The Son S02E10

The Son S02E10
WEBRip | MKV | 1280x720 | English | H264 @ 2499 kbps | AAC @ 93 kbps | 46 min 6 s | 853 MiB
Genre: Drama


The multigenerational epic follows two concurrent time periods: One, the story of young Eli McCullough after he is kidnapped and indoctrinated into a tribe of Comanches in 1849. The other, 60 years later, when we see a grown Eli struggle to maintain his family’s cattle empire during the turbulent Bandit Wars of South Texas. Based on Philipp Meyer’s acclaimed novel.

the.son.s02e10.720p.web.h264-tbs.mkv (852.7 MB)



General
Unique ID : 238374694655156088226590932366654634361 (0xB3554BD684E8F1F53A2B47A2CA02F979)
Complete name : ./the.son.s02e10.720p.web.h264-tbs.mkv
Format : Matroska
Format version : Version 4 / Version 2
File size : 853 MiB
Duration : 46 min 6 s
Overall bit rate : 2 586 kb/s
Encoded date : UTC 2019-06-30 02:01:43
Writing application : mkvmerge v29.0.0 ('Like It Or Not') 64-bit
Writing library : libebml v1.3.6 + libmatroska v1.4.9

Video
ID : 1
Format : AVC
Format/Info : Advanced Video Codec
Format profile : Main@L3.1
Format settings : CABAC / 3 Ref Frames
Format settings, CABAC : Yes
Format settings, RefFrames : 3 frames
Codec ID : V_MPEG4/ISO/AVC
Duration : 46 min 6 s
Bit rate mode : Constant
Bit rate : 2 500 kb/s
Width : 1 280 pixels
Height : 720 pixels
Display aspect ratio : 16:9
Frame rate mode : Constant
Frame rate : 23.976 (24000/1001) FPS
Color space : YUV
Chroma subsampling : 4:2:0
Bit depth : 8 bits
Scan type : Progressive
Bits/(Pixel*Frame) : 0.113
Stream size : 821 MiB (96%)
Default : Yes
Forced : No

Audio
ID : 2
Format : AAC
Format/Info : Advanced Audio Codec
Format profile : LC
Codec ID : A_AAC-2
Duration : 46 min 6 s
Bit rate : 93.6 kb/s
Channel(s) : 2 channels
Channel positions : Front: L R
Sampling rate : 44.1 kHz
Frame rate : 43.066 FPS (1024 SPF)
Compression mode : Lossy
Delay relative to video : -36 ms
Stream size : 30.9 MiB (4%)
Default : Yes
Forced : No





The Son S02E10


The Son S02E10


The Son S02E10


The Son S02E10


The Son S02E10

All episodes