The Terror S01E05

Posted By: Tavaz
1080p (FullHD) / WEB-DL IMDb
The Terror S01E05

The Terror S01E05
WEB-DL | MKV | 1920x1080 | English / English / German / German / French / French / Japanese / Japanese / Chinese / Tamil / Spanish / Spanish / Russian / Portuguese / Polish / Italian / Hungarian / Hindi / Hebrew / Greek / Czech / Bengali / Chinese / Tamil / Spanish / Spanish / Russian / Portuguese / Polish / Italian / Hungarian / Hindi / Hebrew / Greek / Czech / Bengali | H264 @ 9207 kbps | E-AC-3 @ 640 kbps | 42 min 51 s | 7.42 GiB
Subtitles: Swedish, Norwegian Bokmal, Turkish, Romanian, Serbian, Slovenian, Hindi, Dutch, Korean, Danish, Indonesian, Telugu, Hungarian, Macedonian, Bosnian, French, Bengali, Marathi, Russian, Thai, Croatian, Tamil, Finnish, Albanian, Hebrew, Bulgarian, Greek, English, Italian, Portuguese, Chinese, German, Japanese, Czech, Spanish, Polish, Arabic
Genre: Drama, Mystery

The crew of a Royal Naval expedition searching for the Arctic's treacherous Northwest Passage discovers instead a monstrous predator.

38207ed208194fc4b2e384f2dbb0e53d.mkv (7.4 GB)



General
Unique ID : 296624033224561545580934669484303436617 (0xDF27B5F5C1E273BD82E14652E47DCB49)
Complete name : ./38207ed208194fc4b2e384f2dbb0e53d.mkv
Format : Matroska
Format version : Version 4 / Version 2
File size : 7.42 GiB
Duration : 42 min 51 s
Overall bit rate : 24.8 Mb/s
Encoded date : UTC 2019-03-16 03:06:59
Writing application : mkvmerge v31.0.0 ('Dolores In A Shoestand') 64-bit
Writing library : libebml v1.3.6 + libmatroska v1.4.9

Video
ID : 1
Format : AVC
Format/Info : Advanced Video Codec
Format profile : High@L4
Format settings : CABAC / 4 Ref Frames
Format settings, CABAC : Yes
Format settings, RefFrames : 4 frames
Codec ID : V_MPEG4/ISO/AVC
Duration : 42 min 51 s
Bit rate mode : Constant
Bit rate : 9 207 kb/s
Nominal bit rate : 10 000 kb/s
Width : 1 920 pixels
Height : 1 080 pixels
Display aspect ratio : 16:9
Frame rate mode : Constant
Frame rate : 23.976 (24000/1001) FPS
Color space : YUV
Chroma subsampling : 4:2:0
Bit depth : 8 bits
Scan type : Progressive
Bits/(Pixel*Frame) : 0.185
Stream size : 2.76 GiB (37%)
Default : Yes
Forced : No
Color range : Limited
Color primaries : BT.709
Transfer characteristics : BT.709
Matrix coefficients : BT.709

Audio #1
ID : 2
Format : E-AC-3
Format/Info : Enhanced Audio Coding 3
Format settings, Endianness : Big
Codec ID : A_EAC3
Duration : 42 min 51 s
Bit rate mode : Constant
Bit rate : 640 kb/s
Channel(s) : 6 channels
Channel positions : Front: L C R, Side: L R, LFE
Sampling rate : 48.0 kHz
Frame rate : 187.500 FPS (256 SPF)
Compression mode : Lossy
Stream size : 196 MiB (3%)
Title : English
Language : English
Service kind : Complete Main
Default : Yes
Forced : No

Audio #2
ID : 3
Format : E-AC-3
Format/Info : Enhanced Audio Coding 3
Format settings, Endianness : Big
Codec ID : A_EAC3
Duration : 42 min 51 s
Bit rate mode : Constant
Bit rate : 224 kb/s
Channel(s) : 2 channels
Channel positions : Front: L R
Sampling rate : 48.0 kHz
Frame rate : 187.500 FPS (256 SPF)
Compression mode : Lossy
Stream size : 68.7 MiB (1%)
Title : English
Language : English
Service kind : Complete Main
Default : No
Forced : No

Audio #3
ID : 4
Format : E-AC-3
Format/Info : Enhanced Audio Coding 3
Format settings, Endianness : Big
Codec ID : A_EAC3
Duration : 42 min 51 s
Bit rate mode : Constant
Bit rate : 640 kb/s
Channel(s) : 6 channels
Channel positions : Front: L C R, Side: L R, LFE
Sampling rate : 48.0 kHz
Frame rate : 187.500 FPS (256 SPF)
Compression mode : Lossy
Stream size : 196 MiB (3%)
Title : Deutsch
Language : German
Service kind : Complete Main
Default : No
Forced : No

Audio #4
ID : 5
Format : E-AC-3
Format/Info : Enhanced Audio Coding 3
Format settings, Endianness : Big
Codec ID : A_EAC3
Duration : 42 min 51 s
Bit rate mode : Constant
Bit rate : 224 kb/s
Channel(s) : 2 channels
Channel positions : Front: L R
Sampling rate : 48.0 kHz
Frame rate : 187.500 FPS (256 SPF)
Compression mode : Lossy
Stream size : 68.7 MiB (1%)
Title : Deutsch
Language : German
Service kind : Complete Main
Default : No
Forced : No

Audio #5
ID : 6
Format : E-AC-3
Format/Info : Enhanced Audio Coding 3
Format settings, Endianness : Big
Codec ID : A_EAC3
Duration : 42 min 51 s
Bit rate mode : Constant
Bit rate : 640 kb/s
Channel(s) : 6 channels
Channel positions : Front: L C R, Side: L R, LFE
Sampling rate : 48.0 kHz
Frame rate : 187.500 FPS (256 SPF)
Compression mode : Lossy
Stream size : 196 MiB (3%)
Title : Français
Language : French
Service kind : Complete Main
Default : No
Forced : No

Audio #6
ID : 7
Format : E-AC-3
Format/Info : Enhanced Audio Coding 3
Format settings, Endianness : Big
Codec ID : A_EAC3
Duration : 42 min 51 s
Bit rate mode : Constant
Bit rate : 224 kb/s
Channel(s) : 2 channels
Channel positions : Front: L R
Sampling rate : 48.0 kHz
Frame rate : 187.500 FPS (256 SPF)
Compression mode : Lossy
Stream size : 68.7 MiB (1%)
Title : Français
Language : French
Service kind : Complete Main
Default : No
Forced : No

Audio #7
ID : 8
Format : E-AC-3
Format/Info : Enhanced Audio Coding 3
Format settings, Endianness : Big
Codec ID : A_EAC3
Duration : 42 min 51 s
Bit rate mode : Constant
Bit rate : 640 kb/s
Channel(s) : 6 channels
Channel positions : Front: L C R, Side: L R, LFE
Sampling rate : 48.0 kHz
Frame rate : 187.500 FPS (256 SPF)
Compression mode : Lossy
Stream size : 196 MiB (3%)
Title : 日本語
Language : Japanese
Service kind : Complete Main
Default : No
Forced : No

Audio #8
ID : 9
Format : E-AC-3
Format/Info : Enhanced Audio Coding 3
Format settings, Endianness : Big
Codec ID : A_EAC3
Duration : 42 min 51 s
Bit rate mode : Constant
Bit rate : 224 kb/s
Channel(s) : 2 channels
Channel positions : Front: L R
Sampling rate : 48.0 kHz
Frame rate : 187.500 FPS (256 SPF)
Compression mode : Lossy
Stream size : 68.7 MiB (1%)
Title : 日本語
Language : Japanese
Service kind : Complete Main
Default : No
Forced : No

Audio #9
ID : 10
Format : E-AC-3
Format/Info : Enhanced Audio Coding 3
Format settings, Endianness : Big
Codec ID : A_EAC3
Duration : 42 min 51 s
Bit rate mode : Constant
Bit rate : 640 kb/s
Channel(s) : 6 channels
Channel positions : Front: L C R, Side: L R, LFE
Sampling rate : 48.0 kHz
Frame rate : 187.500 FPS (256 SPF)
Compression mode : Lossy
Stream size : 196 MiB (3%)
Title : 中文(繁體)
Language : Chinese
Service kind : Complete Main
Default : No
Forced : No

Audio #10
ID : 11
Format : E-AC-3
Format/Info : Enhanced Audio Coding 3
Format settings, Endianness : Big
Codec ID : A_EAC3
Duration : 42 min 51 s
Bit rate mode : Constant
Bit rate : 640 kb/s
Channel(s) : 6 channels
Channel positions : Front: L C R, Side: L R, LFE
Sampling rate : 48.0 kHz
Frame rate : 187.500 FPS (256 SPF)
Compression mode : Lossy
Stream size : 196 MiB (3%)
Title : தமிழ்
Language : Tamil
Service kind : Complete Main
Default : No
Forced : No

Audio #11
ID : 12
Format : E-AC-3
Format/Info : Enhanced Audio Coding 3
Format settings, Endianness : Big
Codec ID : A_EAC3
Duration : 42 min 51 s
Bit rate mode : Constant
Bit rate : 640 kb/s
Channel(s) : 6 channels
Channel positions : Front: L C R, Side: L R, LFE
Sampling rate : 48.0 kHz
Frame rate : 187.500 FPS (256 SPF)
Compression mode : Lossy
Stream size : 196 MiB (3%)
Title : Español (Latinoamérica)
Language : Spanish
Service kind : Complete Main
Default : No
Forced : No

Audio #12
ID : 13
Format : E-AC-3
Format/Info : Enhanced Audio Coding 3
Format settings, Endianness : Big
Codec ID : A_EAC3
Duration : 42 min 51 s
Bit rate mode : Constant
Bit rate : 640 kb/s
Channel(s) : 6 channels
Channel positions : Front: L C R, Side: L R, LFE
Sampling rate : 48.0 kHz
Frame rate : 187.500 FPS (256 SPF)
Compression mode : Lossy
Stream size : 196 MiB (3%)
Title : Español (España)
Language : Spanish
Service kind : Complete Main
Default : No
Forced : No

Audio #13
ID : 14
Format : E-AC-3
Format/Info : Enhanced Audio Coding 3
Format settings, Endianness : Big
Codec ID : A_EAC3
Duration : 42 min 51 s
Bit rate mode : Constant
Bit rate : 640 kb/s
Channel(s) : 6 channels
Channel positions : Front: L C R, Side: L R, LFE
Sampling rate : 48.0 kHz
Frame rate : 187.500 FPS (256 SPF)
Compression mode : Lossy
Stream size : 196 MiB (3%)
Title : Русский
Language : Russian
Service kind : Complete Main
Default : No
Forced : No

Audio #14
ID : 15
Format : E-AC-3
Format/Info : Enhanced Audio Coding 3
Format settings, Endianness : Big
Codec ID : A_EAC3
Duration : 42 min 51 s
Bit rate mode : Constant
Bit rate : 640 kb/s
Channel(s) : 6 channels
Channel positions : Front: L C R, Side: L R, LFE
Sampling rate : 48.0 kHz
Frame rate : 187.500 FPS (256 SPF)
Compression mode : Lossy
Stream size : 196 MiB (3%)
Title : Português
Language : Portuguese
Service kind : Complete Main
Default : No
Forced : No

Audio #15
ID : 16
Format : E-AC-3
Format/Info : Enhanced Audio Coding 3
Format settings, Endianness : Big
Codec ID : A_EAC3
Duration : 42 min 51 s
Bit rate mode : Constant
Bit rate : 640 kb/s
Channel(s) : 6 channels
Channel positions : Front: L C R, Side: L R, LFE
Sampling rate : 48.0 kHz
Frame rate : 187.500 FPS (256 SPF)
Compression mode : Lossy
Stream size : 196 MiB (3%)
Title : Polski
Language : Polish
Service kind : Complete Main
Default : No
Forced : No

Audio #16
ID : 17
Format : E-AC-3
Format/Info : Enhanced Audio Coding 3
Format settings, Endianness : Big
Codec ID : A_EAC3
Duration : 42 min 51 s
Bit rate mode : Constant
Bit rate : 640 kb/s
Channel(s) : 6 channels
Channel positions : Front: L C R, Side: L R, LFE
Sampling rate : 48.0 kHz
Frame rate : 187.500 FPS (256 SPF)
Compression mode : Lossy
Stream size : 196 MiB (3%)
Title : Italiano
Language : Italian
Service kind : Complete Main
Default : No
Forced : No

Audio #17
ID : 18
Format : E-AC-3
Format/Info : Enhanced Audio Coding 3
Format settings, Endianness : Big
Codec ID : A_EAC3
Duration : 42 min 51 s
Bit rate mode : Constant
Bit rate : 640 kb/s
Channel(s) : 6 channels
Channel positions : Front: L C R, Side: L R, LFE
Sampling rate : 48.0 kHz
Frame rate : 187.500 FPS (256 SPF)
Compression mode : Lossy
Stream size : 196 MiB (3%)
Title : Magyar
Language : Hungarian
Service kind : Complete Main
Default : No
Forced : No

Audio #18
ID : 19
Format : E-AC-3
Format/Info : Enhanced Audio Coding 3
Format settings, Endianness : Big
Codec ID : A_EAC3
Duration : 42 min 51 s
Bit rate mode : Constant
Bit rate : 640 kb/s
Channel(s) : 6 channels
Channel positions : Front: L C R, Side: L R, LFE
Sampling rate : 48.0 kHz
Frame rate : 187.500 FPS (256 SPF)
Compression mode : Lossy
Stream size : 196 MiB (3%)
Title : हिन्दी
Language : Hindi
Service kind : Complete Main
Default : No
Forced : No

Audio #19
ID : 20
Format : E-AC-3
Format/Info : Enhanced Audio Coding 3
Format settings, Endianness : Big
Codec ID : A_EAC3
Duration : 42 min 51 s
Bit rate mode : Constant
Bit rate : 640 kb/s
Channel(s) : 6 channels
Channel positions : Front: L C R, Side: L R, LFE
Sampling rate : 48.0 kHz
Frame rate : 187.500 FPS (256 SPF)
Compression mode : Lossy
Stream size : 196 MiB (3%)
Title : עברית
Language : Hebrew
Service kind : Complete Main
Default : No
Forced : No

Audio #20
ID : 21
Format : E-AC-3
Format/Info : Enhanced Audio Coding 3
Format settings, Endianness : Big
Codec ID : A_EAC3
Duration : 42 min 51 s
Bit rate mode : Constant
Bit rate : 640 kb/s
Channel(s) : 6 channels
Channel positions : Front: L C R, Side: L R, LFE
Sampling rate : 48.0 kHz
Frame rate : 187.500 FPS (256 SPF)
Compression mode : Lossy
Stream size : 196 MiB (3%)
Title : Ελληνικά
Language : Greek
Service kind : Complete Main
Default : No
Forced : No

Audio #21
ID : 22
Format : E-AC-3
Format/Info : Enhanced Audio Coding 3
Format settings, Endianness : Big
Codec ID : A_EAC3
Duration : 42 min 51 s
Bit rate mode : Constant
Bit rate : 640 kb/s
Channel(s) : 6 channels
Channel positions : Front: L C R, Side: L R, LFE
Sampling rate : 48.0 kHz
Frame rate : 187.500 FPS (256 SPF)
Compression mode : Lossy
Stream size : 196 MiB (3%)
Title : Čeština
Language : Czech
Service kind : Complete Main
Default : No
Forced : No

Audio #22
ID : 23
Format : E-AC-3
Format/Info : Enhanced Audio Coding 3
Format settings, Endianness : Big
Codec ID : A_EAC3
Duration : 42 min 51 s
Bit rate mode : Constant
Bit rate : 640 kb/s
Channel(s) : 6 channels
Channel positions : Front: L C R, Side: L R, LFE
Sampling rate : 48.0 kHz
Frame rate : 187.500 FPS (256 SPF)
Compression mode : Lossy
Stream size : 196 MiB (3%)
Title : বাংলা
Language : Bengali
Service kind : Complete Main
Default : No
Forced : No

Audio #23
ID : 24
Format : E-AC-3
Format/Info : Enhanced Audio Coding 3
Format settings, Endianness : Big
Codec ID : A_EAC3
Duration : 42 min 51 s
Bit rate mode : Constant
Bit rate : 224 kb/s
Channel(s) : 2 channels
Channel positions : Front: L R
Sampling rate : 48.0 kHz
Frame rate : 187.500 FPS (256 SPF)
Compression mode : Lossy
Stream size : 68.7 MiB (1%)
Title : 中文(繁體)
Language : Chinese
Service kind : Complete Main
Default : No
Forced : No

Audio #24
ID : 25
Format : E-AC-3
Format/Info : Enhanced Audio Coding 3
Format settings, Endianness : Big
Codec ID : A_EAC3
Duration : 42 min 51 s
Bit rate mode : Constant
Bit rate : 224 kb/s
Channel(s) : 2 channels
Channel positions : Front: L R
Sampling rate : 48.0 kHz
Frame rate : 187.500 FPS (256 SPF)
Compression mode : Lossy
Stream size : 68.7 MiB (1%)
Title : தமிழ்
Language : Tamil
Service kind : Complete Main
Default : No
Forced : No

Audio #25
ID : 26
Format : E-AC-3
Format/Info : Enhanced Audio Coding 3
Format settings, Endianness : Big
Codec ID : A_EAC3
Duration : 42 min 51 s
Bit rate mode : Constant
Bit rate : 224 kb/s
Channel(s) : 2 channels
Channel positions : Front: L R
Sampling rate : 48.0 kHz
Frame rate : 187.500 FPS (256 SPF)
Compression mode : Lossy
Stream size : 68.7 MiB (1%)
Title : Español (Latinoamérica)
Language : Spanish
Service kind : Complete Main
Default : No
Forced : No

Audio #26
ID : 27
Format : E-AC-3
Format/Info : Enhanced Audio Coding 3
Format settings, Endianness : Big
Codec ID : A_EAC3
Duration : 42 min 51 s
Bit rate mode : Constant
Bit rate : 224 kb/s
Channel(s) : 2 channels
Channel positions : Front: L R
Sampling rate : 48.0 kHz
Frame rate : 187.500 FPS (256 SPF)
Compression mode : Lossy
Stream size : 68.7 MiB (1%)
Title : Español (España)
Language : Spanish
Service kind : Complete Main
Default : No
Forced : No

Audio #27
ID : 28
Format : E-AC-3
Format/Info : Enhanced Audio Coding 3
Format settings, Endianness : Big
Codec ID : A_EAC3
Duration : 42 min 51 s
Bit rate mode : Constant
Bit rate : 224 kb/s
Channel(s) : 2 channels
Channel positions : Front: L R
Sampling rate : 48.0 kHz
Frame rate : 187.500 FPS (256 SPF)
Compression mode : Lossy
Stream size : 68.7 MiB (1%)
Title : Русский
Language : Russian
Service kind : Complete Main
Default : No
Forced : No

Audio #28
ID : 29
Format : E-AC-3
Format/Info : Enhanced Audio Coding 3
Format settings, Endianness : Big
Codec ID : A_EAC3
Duration : 42 min 51 s
Bit rate mode : Constant
Bit rate : 224 kb/s
Channel(s) : 2 channels
Channel positions : Front: L R
Sampling rate : 48.0 kHz
Frame rate : 187.500 FPS (256 SPF)
Compression mode : Lossy
Stream size : 68.7 MiB (1%)
Title : Português
Language : Portuguese
Service kind : Complete Main
Default : No
Forced : No

Audio #29
ID : 30
Format : E-AC-3
Format/Info : Enhanced Audio Coding 3
Format settings, Endianness : Big
Codec ID : A_EAC3
Duration : 42 min 51 s
Bit rate mode : Constant
Bit rate : 224 kb/s
Channel(s) : 2 channels
Channel positions : Front: L R
Sampling rate : 48.0 kHz
Frame rate : 187.500 FPS (256 SPF)
Compression mode : Lossy
Stream size : 68.7 MiB (1%)
Title : Polski
Language : Polish
Service kind : Complete Main
Default : No
Forced : No

Audio #30
ID : 31
Format : E-AC-3
Format/Info : Enhanced Audio Coding 3
Format settings, Endianness : Big
Codec ID : A_EAC3
Duration : 42 min 51 s
Bit rate mode : Constant
Bit rate : 224 kb/s
Channel(s) : 2 channels
Channel positions : Front: L R
Sampling rate : 48.0 kHz
Frame rate : 187.500 FPS (256 SPF)
Compression mode : Lossy
Stream size : 68.7 MiB (1%)
Title : Italiano
Language : Italian
Service kind : Complete Main
Default : No
Forced : No

Audio #31
ID : 32
Format : E-AC-3
Format/Info : Enhanced Audio Coding 3
Format settings, Endianness : Big
Codec ID : A_EAC3
Duration : 42 min 51 s
Bit rate mode : Constant
Bit rate : 224 kb/s
Channel(s) : 2 channels
Channel positions : Front: L R
Sampling rate : 48.0 kHz
Frame rate : 187.500 FPS (256 SPF)
Compression mode : Lossy
Stream size : 68.7 MiB (1%)
Title : Magyar
Language : Hungarian
Service kind : Complete Main
Default : No
Forced : No

Audio #32
ID : 33
Format : E-AC-3
Format/Info : Enhanced Audio Coding 3
Format settings, Endianness : Big
Codec ID : A_EAC3
Duration : 42 min 51 s
Bit rate mode : Constant
Bit rate : 224 kb/s
Channel(s) : 2 channels
Channel positions : Front: L R
Sampling rate : 48.0 kHz
Frame rate : 187.500 FPS (256 SPF)
Compression mode : Lossy
Stream size : 68.7 MiB (1%)
Title : हिन्दी
Language : Hindi
Service kind : Complete Main
Default : No
Forced : No

Audio #33
ID : 34
Format : E-AC-3
Format/Info : Enhanced Audio Coding 3
Format settings, Endianness : Big
Codec ID : A_EAC3
Duration : 42 min 51 s
Bit rate mode : Constant
Bit rate : 224 kb/s
Channel(s) : 2 channels
Channel positions : Front: L R
Sampling rate : 48.0 kHz
Frame rate : 187.500 FPS (256 SPF)
Compression mode : Lossy
Stream size : 68.7 MiB (1%)
Title : עברית
Language : Hebrew
Service kind : Complete Main
Default : No
Forced : No

Audio #34
ID : 35
Format : E-AC-3
Format/Info : Enhanced Audio Coding 3
Format settings, Endianness : Big
Codec ID : A_EAC3
Duration : 42 min 51 s
Bit rate mode : Constant
Bit rate : 224 kb/s
Channel(s) : 2 channels
Channel positions : Front: L R
Sampling rate : 48.0 kHz
Frame rate : 187.500 FPS (256 SPF)
Compression mode : Lossy
Stream size : 68.7 MiB (1%)
Title : Ελληνικά
Language : Greek
Service kind : Complete Main
Default : No
Forced : No

Audio #35
ID : 36
Format : E-AC-3
Format/Info : Enhanced Audio Coding 3
Format settings, Endianness : Big
Codec ID : A_EAC3
Duration : 42 min 51 s
Bit rate mode : Constant
Bit rate : 224 kb/s
Channel(s) : 2 channels
Channel positions : Front: L R
Sampling rate : 48.0 kHz
Frame rate : 187.500 FPS (256 SPF)
Compression mode : Lossy
Stream size : 68.7 MiB (1%)
Title : Čeština
Language : Czech
Service kind : Complete Main
Default : No
Forced : No

Audio #36
ID : 37
Format : E-AC-3
Format/Info : Enhanced Audio Coding 3
Format settings, Endianness : Big
Codec ID : A_EAC3
Duration : 42 min 51 s
Bit rate mode : Constant
Bit rate : 224 kb/s
Channel(s) : 2 channels
Channel positions : Front: L R
Sampling rate : 48.0 kHz
Frame rate : 187.500 FPS (256 SPF)
Compression mode : Lossy
Stream size : 68.7 MiB (1%)
Title : বাংলা
Language : Bengali
Service kind : Complete Main
Default : No
Forced : No

Text #1
ID : 38
Format : UTF-8
Codec ID : S_TEXT/UTF8
Codec ID/Info : UTF-8 Plain Text
Duration : 42 min 6 s
Bit rate : 44 b/s
Count of elements : 379
Stream size : 13.8 KiB (0%)
Title : Bosanski
Language : Bosnian
Default : Yes
Forced : No

Text #2
ID : 39
Format : UTF-8
Codec ID : S_TEXT/UTF8
Codec ID/Info : UTF-8 Plain Text
Duration : 42 min 6 s
Bit rate : 47 b/s
Count of elements : 470
Stream size : 14.5 KiB (0%)
Title : Dansk
Language : Danish
Default : No
Forced : No

Text #3
ID : 40
Format : UTF-8
Codec ID : S_TEXT/UTF8
Codec ID/Info : UTF-8 Plain Text
Duration : 42 min 5 s
Bit rate : 57 b/s
Count of elements : 506
Stream size : 17.6 KiB (0%)
Title : Deutsch
Language : German
Default : No
Forced : No

Text #4
ID : 41
Format : UTF-8
Codec ID : S_TEXT/UTF8
Codec ID/Info : UTF-8 Plain Text
Duration : 42 min 5 s
Bit rate : 51 b/s
Count of elements : 495
Stream size : 15.8 KiB (0%)
Title : English
Language : English
Default : No
Forced : No

Text #5
ID : 42
Format : UTF-8
Codec ID : S_TEXT/UTF8
Codec ID/Info : UTF-8 Plain Text
Duration : 42 min 5 s
Bit rate : 50 b/s
Count of elements : 501
Stream size : 15.7 KiB (0%)
Title : Español (España)
Language : Spanish
Default : No
Forced : No

Text #6
ID : 43
Format : UTF-8
Codec ID : S_TEXT/UTF8
Codec ID/Info : UTF-8 Plain Text
Duration : 42 min 6 s
Bit rate : 59 b/s
Count of elements : 510
Stream size : 18.2 KiB (0%)
Title : Español (Latinoamérica)
Language : Spanish
Default : No
Forced : No

Text #7
ID : 44
Format : UTF-8
Codec ID : S_TEXT/UTF8
Codec ID/Info : UTF-8 Plain Text
Duration : 42 min 5 s
Bit rate : 46 b/s
Count of elements : 487
Stream size : 14.2 KiB (0%)
Title : Français
Language : French
Default : No
Forced : No

Text #8
ID : 45
Format : UTF-8
Codec ID : S_TEXT/UTF8
Codec ID/Info : UTF-8 Plain Text
Duration : 42 min 6 s
Bit rate : 44 b/s
Count of elements : 378
Stream size : 13.7 KiB (0%)
Title : Hrvatski
Language : Croatian
Default : No
Forced : No

Text #9
ID : 46
Format : UTF-8
Codec ID : S_TEXT/UTF8
Codec ID/Info : UTF-8 Plain Text
Duration : 42 min 18 s
Bit rate : 54 b/s
Count of elements : 524
Stream size : 16.9 KiB (0%)
Title : Indonesia
Language : Indonesian
Default : No
Forced : No

Text #10
ID : 47
Format : UTF-8
Codec ID : S_TEXT/UTF8
Codec ID/Info : UTF-8 Plain Text
Duration : 42 min 5 s
Bit rate : 54 b/s
Count of elements : 501
Stream size : 16.8 KiB (0%)
Title : Italiano
Language : Italian
Default : No
Forced : No

Text #11
ID : 48
Format : UTF-8
Codec ID : S_TEXT/UTF8
Codec ID/Info : UTF-8 Plain Text
Duration : 42 min 5 s
Bit rate : 51 b/s
Count of elements : 497
Stream size : 15.8 KiB (0%)
Title : Magyar
Language : Hungarian
Default : No
Forced : No

Text #12
ID : 49
Format : UTF-8
Codec ID : S_TEXT/UTF8
Codec ID/Info : UTF-8 Plain Text
Duration : 42 min 5 s
Bit rate : 47 b/s
Count of elements : 497
Stream size : 14.7 KiB (0%)
Title : Nederlands
Language : Dutch
Default : No
Forced : No

Text #13
ID : 50
Format : UTF-8
Codec ID : S_TEXT/UTF8
Codec ID/Info : UTF-8 Plain Text
Duration : 42 min 6 s
Bit rate : 49 b/s
Count of elements : 471
Stream size : 15.3 KiB (0%)
Title : Norsk Bokmål
Language : Norwegian Bokmal
Default : No
Forced : No

Text #14
ID : 51
Format : UTF-8
Codec ID : S_TEXT/UTF8
Codec ID/Info : UTF-8 Plain Text
Duration : 42 min 8 s
Bit rate : 43 b/s
Count of elements : 491
Stream size : 13.6 KiB (0%)
Title : Polski
Language : Polish
Default : No
Forced : No

Text #15
ID : 52
Format : UTF-8
Codec ID : S_TEXT/UTF8
Codec ID/Info : UTF-8 Plain Text
Duration : 42 min 6 s
Bit rate : 58 b/s
Count of elements : 538
Stream size : 18.1 KiB (0%)
Title : Português (Brasil)
Language : Portuguese
Default : No
Forced : No

Text #16
ID : 53
Format : UTF-8
Codec ID : S_TEXT/UTF8
Codec ID/Info : UTF-8 Plain Text
Duration : 42 min 5 s
Bit rate : 49 b/s
Count of elements : 497
Stream size : 15.4 KiB (0%)
Title : Português (Portugal)
Language : Portuguese
Default : No
Forced : No

Text #17
ID : 54
Format : UTF-8
Codec ID : S_TEXT/UTF8
Codec ID/Info : UTF-8 Plain Text
Duration : 42 min 17 s
Bit rate : 45 b/s
Count of elements : 498
Stream size : 14.2 KiB (0%)
Title : Română
Language : Romanian
Default : No
Forced : No

Text #18
ID : 55
Format : UTF-8
Codec ID : S_TEXT/UTF8
Codec ID/Info : UTF-8 Plain Text
Duration : 42 min 7 s
Bit rate : 55 b/s
Count of elements : 504
Stream size : 17.1 KiB (0%)
Title : Shqip
Language : Albanian
Default : No
Forced : No

Text #19
ID : 56
Format : UTF-8
Codec ID : S_TEXT/UTF8
Codec ID/Info : UTF-8 Plain Text
Duration : 42 min 6 s
Bit rate : 43 b/s
Count of elements : 384
Stream size : 13.6 KiB (0%)
Title : Slovenščina
Language : Slovenian
Default : No
Forced : No

Text #20
ID : 57
Format : UTF-8
Codec ID : S_TEXT/UTF8
Codec ID/Info : UTF-8 Plain Text
Duration : 42 min 6 s
Bit rate : 47 b/s
Count of elements : 419
Stream size : 14.6 KiB (0%)
Title : Suomi
Language : Finnish
Default : No
Forced : No

Text #21
ID : 58
Format : UTF-8
Codec ID : S_TEXT/UTF8
Codec ID/Info : UTF-8 Plain Text
Duration : 42 min 6 s
Bit rate : 46 b/s
Count of elements : 434
Stream size : 14.2 KiB (0%)
Title : Svenska
Language : Swedish
Default : No
Forced : No

Text #22
ID : 59
Format : UTF-8
Codec ID : S_TEXT/UTF8
Codec ID/Info : UTF-8 Plain Text
Duration : 42 min 5 s
Bit rate : 50 b/s
Count of elements : 498
Stream size : 15.6 KiB (0%)
Title : Türkçe
Language : Turkish
Default : No
Forced : No

Text #23
ID : 60
Format : UTF-8
Codec ID : S_TEXT/UTF8
Codec ID/Info : UTF-8 Plain Text
Duration : 42 min 6 s
Bit rate : 48 b/s
Count of elements : 412
Stream size : 15.1 KiB (0%)
Title : Čeština
Language : Czech
Default : No
Forced : No

Text #24
ID : 61
Format : UTF-8
Codec ID : S_TEXT/UTF8
Codec ID/Info : UTF-8 Plain Text
Duration : 42 min 5 s
Bit rate : 91 b/s
Count of elements : 497
Stream size : 28.2 KiB (0%)
Title : Ελληνικά
Language : Greek
Default : No
Forced : No

Text #25
ID : 62
Format : UTF-8
Codec ID : S_TEXT/UTF8
Codec ID/Info : UTF-8 Plain Text
Duration : 42 min 5 s
Bit rate : 77 b/s
Count of elements : 497
Stream size : 23.9 KiB (0%)
Title : Български
Language : Bulgarian
Default : No
Forced : No

Text #26
ID : 63
Format : UTF-8
Codec ID : S_TEXT/UTF8
Codec ID/Info : UTF-8 Plain Text
Duration : 42 min 6 s
Bit rate : 82 b/s
Count of elements : 385
Stream size : 25.3 KiB (0%)
Title : Македонски
Language : Macedonian
Default : No
Forced : No

Text #27
ID : 64
Format : UTF-8
Codec ID : S_TEXT/UTF8
Codec ID/Info : UTF-8 Plain Text
Duration : 42 min 5 s
Bit rate : 85 b/s
Count of elements : 497
Stream size : 26.3 KiB (0%)
Title : Русский
Language : Russian
Default : No
Forced : No

Text #28
ID : 65
Format : UTF-8
Codec ID : S_TEXT/UTF8
Codec ID/Info : UTF-8 Plain Text
Duration : 42 min 6 s
Bit rate : 76 b/s
Count of elements : 383
Stream size : 23.5 KiB (0%)
Title : Српски
Language : Serbian
Default : No
Forced : No

Text #29
ID : 66
Format : UTF-8
Codec ID : S_TEXT/UTF8
Codec ID/Info : UTF-8 Plain Text
Duration : 42 min 27 s
Bit rate : 71 b/s
Count of elements : 502
Stream size : 22.3 KiB (0%)
Title : עברית
Language : Hebrew
Default : No
Forced : No

Text #30
ID : 67
Format : UTF-8
Codec ID : S_TEXT/UTF8
Codec ID/Info : UTF-8 Plain Text
Duration : 42 min 5 s
Bit rate : 73 b/s
Count of elements : 498
Stream size : 22.6 KiB (0%)
Title : العربية
Language : Arabic
Default : No
Forced : No

Text #31
ID : 68
Format : UTF-8
Codec ID : S_TEXT/UTF8
Codec ID/Info : UTF-8 Plain Text
Duration : 42 min 9 s
Bit rate : 137 b/s
Count of elements : 509
Stream size : 42.6 KiB (0%)
Title : मराठी
Language : Marathi
Default : No
Forced : No

Text #32
ID : 69
Format : UTF-8
Codec ID : S_TEXT/UTF8
Codec ID/Info : UTF-8 Plain Text
Duration : 42 min 9 s
Bit rate : 130 b/s
Count of elements : 509
Stream size : 40.4 KiB (0%)
Title : हिन्दी
Language : Hindi
Default : No
Forced : No

Text #33
ID : 70
Format : UTF-8
Codec ID : S_TEXT/UTF8
Codec ID/Info : UTF-8 Plain Text
Duration : 42 min 9 s
Bit rate : 132 b/s
Count of elements : 509
Stream size : 41.0 KiB (0%)
Title : বাংলা
Language : Bengali
Default : No
Forced : No

Text #34
ID : 71
Format : UTF-8
Codec ID : S_TEXT/UTF8
Codec ID/Info : UTF-8 Plain Text
Duration : 42 min 9 s
Bit rate : 119 b/s
Count of elements : 509
Stream size : 36.8 KiB (0%)
Title : தமிழ்
Language : Tamil
Default : No
Forced : No

Text #35
ID : 72
Format : UTF-8
Codec ID : S_TEXT/UTF8
Codec ID/Info : UTF-8 Plain Text
Duration : 42 min 9 s
Bit rate : 153 b/s
Count of elements : 509
Stream size : 47.4 KiB (0%)
Title : తెలుగు
Language : Telugu
Default : No
Forced : No

Text #36
ID : 73
Format : UTF-8
Codec ID : S_TEXT/UTF8
Codec ID/Info : UTF-8 Plain Text
Duration : 42 min 18 s
Bit rate : 105 b/s
Count of elements : 499
Stream size : 32.6 KiB (0%)
Title : ไทย
Language : Thai
Default : No
Forced : No

Text #37
ID : 74
Format : UTF-8
Codec ID : S_TEXT/UTF8
Codec ID/Info : UTF-8 Plain Text
Duration : 42 min 9 s
Bit rate : 46 b/s
Count of elements : 509
Stream size : 14.5 KiB (0%)
Title : 中文(中国)
Language : Chinese
Default : No
Forced : No

Text #38
ID : 75
Format : UTF-8
Codec ID : S_TEXT/UTF8
Codec ID/Info : UTF-8 Plain Text
Duration : 42 min 18 s
Bit rate : 46 b/s
Count of elements : 512
Stream size : 14.4 KiB (0%)
Title : 中文(繁體)
Language : Chinese
Default : No
Forced : No

Text #39
ID : 76
Format : UTF-8
Codec ID : S_TEXT/UTF8
Codec ID/Info : UTF-8 Plain Text
Duration : 42 min 5 s
Bit rate : 40 b/s
Count of elements : 465
Stream size : 12.4 KiB (0%)
Title : 日本語
Language : Japanese
Default : No
Forced : No

Text #40
ID : 77
Format : UTF-8
Codec ID : S_TEXT/UTF8
Codec ID/Info : UTF-8 Plain Text
Duration : 42 min 19 s
Bit rate : 59 b/s
Count of elements : 503
Stream size : 18.4 KiB (0%)
Title : 한국어
Language : Korean
Default : No
Forced : No





The Terror S01E05


The Terror S01E05


The Terror S01E05


The Terror S01E05


The Terror S01E05

All episodes