Featured TV Shows


The Terror S01E09

Posted By: Tavaz
1080p (FullHD) / WEB-DL IMDb
The Terror S01E09

The Terror S01E09
WEB-DL | MKV | 1920x1080 | English / English / German / German / French / French / Japanese / Japanese / Chinese / Tamil / Spanish / Spanish / Russian / Portuguese / Polish / Italian / Hungarian / Hindi / Hebrew / Greek / Czech / Bengali / Chinese / Tamil / Spanish / Spanish / Russian / Portuguese / Polish / Italian / Hungarian / Hindi / Hebrew / Greek / Czech / Bengali | H264 @ 7243 kbps | E-AC-3 @ 640 kbps | 56 min 41 s | 9.03 GiB
Subtitles: Swedish, Norwegian Bokmal, Turkish, Romanian, Serbian, Slovenian, Hindi, Dutch, Korean, Danish, Indonesian, Telugu, Hungarian, Macedonian, Bosnian, French, Bengali, Marathi, Russian, Thai, Croatian, Tamil, Finnish, Albanian, Hebrew, Bulgarian, Greek, English, Italian, Portuguese, Chinese, German, Japanese, Czech, Spanish, Polish, Arabic
Genre: Drama, Mystery

The crew of a Royal Naval expedition searching for the Arctic's treacherous Northwest Passage discovers instead a monstrous predator.

The.Terror.S01E09.1080p.AMZN.WEB-DL.DDP5.1.H264-Ao-Rakuvfinhel=b8ad1c6fafadaceee4db4b001cc2dda2a0e74d59.part1.rar (4.7 GB)
The.Terror.S01E09.1080p.AMZN.WEB-DL.DDP5.1.H264-Ao-Rakuvfinhel=b8ad1c6fafadaceee4db4b001cc2dda2a0e74d59.part2.rar (4.4 GB)



General
Unique ID : 196315033550308616634408623944037032111 (0x93B0E671332875F9D11FDFDC89B3E0AF)
Complete name : ./39f03d45d15045129c50d31ba31fd78f.mkv
Format : Matroska
Format version : Version 4 / Version 2
File size : 9.03 GiB
Duration : 56 min 41 s
Overall bit rate : 22.8 Mb/s
Encoded date : UTC 2019-03-16 04:13:16
Writing application : mkvmerge v31.0.0 ('Dolores In A Shoestand') 64-bit
Writing library : libebml v1.3.6 + libmatroska v1.4.9

Video
ID : 1
Format : AVC
Format/Info : Advanced Video Codec
Format profile : High@L4
Format settings : CABAC / 4 Ref Frames
Format settings, CABAC : Yes
Format settings, RefFrames : 4 frames
Codec ID : V_MPEG4/ISO/AVC
Duration : 56 min 41 s
Bit rate mode : Constant
Bit rate : 7 244 kb/s
Nominal bit rate : 10 000 kb/s
Width : 1 920 pixels
Height : 1 080 pixels
Display aspect ratio : 16:9
Frame rate mode : Constant
Frame rate : 23.976 (24000/1001) FPS
Color space : YUV
Chroma subsampling : 4:2:0
Bit depth : 8 bits
Scan type : Progressive
Bits/(Pixel*Frame) : 0.146
Stream size : 2.87 GiB (32%)
Default : Yes
Forced : No
Color range : Limited
Color primaries : BT.709
Transfer characteristics : BT.709
Matrix coefficients : BT.709

Audio #1
ID : 2
Format : E-AC-3
Format/Info : Enhanced Audio Coding 3
Format settings, Endianness : Big
Codec ID : A_EAC3
Duration : 56 min 41 s
Bit rate mode : Constant
Bit rate : 640 kb/s
Channel(s) : 6 channels
Channel positions : Front: L C R, Side: L R, LFE
Sampling rate : 48.0 kHz
Frame rate : 187.500 FPS (256 SPF)
Compression mode : Lossy
Stream size : 260 MiB (3%)
Title : English
Language : English
Service kind : Complete Main
Default : Yes
Forced : No

Audio #2
ID : 3
Format : E-AC-3
Format/Info : Enhanced Audio Coding 3
Format settings, Endianness : Big
Codec ID : A_EAC3
Duration : 56 min 41 s
Bit rate mode : Constant
Bit rate : 224 kb/s
Channel(s) : 2 channels
Channel positions : Front: L R
Sampling rate : 48.0 kHz
Frame rate : 187.500 FPS (256 SPF)
Compression mode : Lossy
Stream size : 90.8 MiB (1%)
Title : English
Language : English
Service kind : Complete Main
Default : No
Forced : No

Audio #3
ID : 4
Format : E-AC-3
Format/Info : Enhanced Audio Coding 3
Format settings, Endianness : Big
Codec ID : A_EAC3
Duration : 56 min 41 s
Bit rate mode : Constant
Bit rate : 640 kb/s
Channel(s) : 6 channels
Channel positions : Front: L C R, Side: L R, LFE
Sampling rate : 48.0 kHz
Frame rate : 187.500 FPS (256 SPF)
Compression mode : Lossy
Stream size : 260 MiB (3%)
Title : Deutsch
Language : German
Service kind : Complete Main
Default : No
Forced : No

Audio #4
ID : 5
Format : E-AC-3
Format/Info : Enhanced Audio Coding 3
Format settings, Endianness : Big
Codec ID : A_EAC3
Duration : 56 min 41 s
Bit rate mode : Constant
Bit rate : 224 kb/s
Channel(s) : 2 channels
Channel positions : Front: L R
Sampling rate : 48.0 kHz
Frame rate : 187.500 FPS (256 SPF)
Compression mode : Lossy
Stream size : 90.8 MiB (1%)
Title : Deutsch
Language : German
Service kind : Complete Main
Default : No
Forced : No

Audio #5
ID : 6
Format : E-AC-3
Format/Info : Enhanced Audio Coding 3
Format settings, Endianness : Big
Codec ID : A_EAC3
Duration : 56 min 41 s
Bit rate mode : Constant
Bit rate : 640 kb/s
Channel(s) : 6 channels
Channel positions : Front: L C R, Side: L R, LFE
Sampling rate : 48.0 kHz
Frame rate : 187.500 FPS (256 SPF)
Compression mode : Lossy
Stream size : 260 MiB (3%)
Title : Français
Language : French
Service kind : Complete Main
Default : No
Forced : No

Audio #6
ID : 7
Format : E-AC-3
Format/Info : Enhanced Audio Coding 3
Format settings, Endianness : Big
Codec ID : A_EAC3
Duration : 56 min 41 s
Bit rate mode : Constant
Bit rate : 224 kb/s
Channel(s) : 2 channels
Channel positions : Front: L R
Sampling rate : 48.0 kHz
Frame rate : 187.500 FPS (256 SPF)
Compression mode : Lossy
Stream size : 90.8 MiB (1%)
Title : Français
Language : French
Service kind : Complete Main
Default : No
Forced : No

Audio #7
ID : 8
Format : E-AC-3
Format/Info : Enhanced Audio Coding 3
Format settings, Endianness : Big
Codec ID : A_EAC3
Duration : 56 min 41 s
Bit rate mode : Constant
Bit rate : 640 kb/s
Channel(s) : 6 channels
Channel positions : Front: L C R, Side: L R, LFE
Sampling rate : 48.0 kHz
Frame rate : 187.500 FPS (256 SPF)
Compression mode : Lossy
Stream size : 260 MiB (3%)
Title : 日本語
Language : Japanese
Service kind : Complete Main
Default : No
Forced : No

Audio #8
ID : 9
Format : E-AC-3
Format/Info : Enhanced Audio Coding 3
Format settings, Endianness : Big
Codec ID : A_EAC3
Duration : 56 min 41 s
Bit rate mode : Constant
Bit rate : 224 kb/s
Channel(s) : 2 channels
Channel positions : Front: L R
Sampling rate : 48.0 kHz
Frame rate : 187.500 FPS (256 SPF)
Compression mode : Lossy
Stream size : 90.8 MiB (1%)
Title : 日本語
Language : Japanese
Service kind : Complete Main
Default : No
Forced : No

Audio #9
ID : 10
Format : E-AC-3
Format/Info : Enhanced Audio Coding 3
Format settings, Endianness : Big
Codec ID : A_EAC3
Duration : 56 min 41 s
Bit rate mode : Constant
Bit rate : 640 kb/s
Channel(s) : 6 channels
Channel positions : Front: L C R, Side: L R, LFE
Sampling rate : 48.0 kHz
Frame rate : 187.500 FPS (256 SPF)
Compression mode : Lossy
Stream size : 260 MiB (3%)
Title : 中文(繁體)
Language : Chinese
Service kind : Complete Main
Default : No
Forced : No

Audio #10
ID : 11
Format : E-AC-3
Format/Info : Enhanced Audio Coding 3
Format settings, Endianness : Big
Codec ID : A_EAC3
Duration : 56 min 41 s
Bit rate mode : Constant
Bit rate : 640 kb/s
Channel(s) : 6 channels
Channel positions : Front: L C R, Side: L R, LFE
Sampling rate : 48.0 kHz
Frame rate : 187.500 FPS (256 SPF)
Compression mode : Lossy
Stream size : 260 MiB (3%)
Title : தமிழ்
Language : Tamil
Service kind : Complete Main
Default : No
Forced : No

Audio #11
ID : 12
Format : E-AC-3
Format/Info : Enhanced Audio Coding 3
Format settings, Endianness : Big
Codec ID : A_EAC3
Duration : 56 min 41 s
Bit rate mode : Constant
Bit rate : 640 kb/s
Channel(s) : 6 channels
Channel positions : Front: L C R, Side: L R, LFE
Sampling rate : 48.0 kHz
Frame rate : 187.500 FPS (256 SPF)
Compression mode : Lossy
Stream size : 260 MiB (3%)
Title : Español (Latinoamérica)
Language : Spanish
Service kind : Complete Main
Default : No
Forced : No

Audio #12
ID : 13
Format : E-AC-3
Format/Info : Enhanced Audio Coding 3
Format settings, Endianness : Big
Codec ID : A_EAC3
Duration : 56 min 41 s
Bit rate mode : Constant
Bit rate : 640 kb/s
Channel(s) : 6 channels
Channel positions : Front: L C R, Side: L R, LFE
Sampling rate : 48.0 kHz
Frame rate : 187.500 FPS (256 SPF)
Compression mode : Lossy
Stream size : 260 MiB (3%)
Title : Español (España)
Language : Spanish
Service kind : Complete Main
Default : No
Forced : No

Audio #13
ID : 14
Format : E-AC-3
Format/Info : Enhanced Audio Coding 3
Format settings, Endianness : Big
Codec ID : A_EAC3
Duration : 56 min 41 s
Bit rate mode : Constant
Bit rate : 640 kb/s
Channel(s) : 6 channels
Channel positions : Front: L C R, Side: L R, LFE
Sampling rate : 48.0 kHz
Frame rate : 187.500 FPS (256 SPF)
Compression mode : Lossy
Stream size : 260 MiB (3%)
Title : Русский
Language : Russian
Service kind : Complete Main
Default : No
Forced : No

Audio #14
ID : 15
Format : E-AC-3
Format/Info : Enhanced Audio Coding 3
Format settings, Endianness : Big
Codec ID : A_EAC3
Duration : 56 min 41 s
Bit rate mode : Constant
Bit rate : 640 kb/s
Channel(s) : 6 channels
Channel positions : Front: L C R, Side: L R, LFE
Sampling rate : 48.0 kHz
Frame rate : 187.500 FPS (256 SPF)
Compression mode : Lossy
Stream size : 260 MiB (3%)
Title : Português
Language : Portuguese
Service kind : Complete Main
Default : No
Forced : No

Audio #15
ID : 16
Format : E-AC-3
Format/Info : Enhanced Audio Coding 3
Format settings, Endianness : Big
Codec ID : A_EAC3
Duration : 56 min 41 s
Bit rate mode : Constant
Bit rate : 640 kb/s
Channel(s) : 6 channels
Channel positions : Front: L C R, Side: L R, LFE
Sampling rate : 48.0 kHz
Frame rate : 187.500 FPS (256 SPF)
Compression mode : Lossy
Stream size : 260 MiB (3%)
Title : Polski
Language : Polish
Service kind : Complete Main
Default : No
Forced : No

Audio #16
ID : 17
Format : E-AC-3
Format/Info : Enhanced Audio Coding 3
Format settings, Endianness : Big
Codec ID : A_EAC3
Duration : 56 min 41 s
Bit rate mode : Constant
Bit rate : 640 kb/s
Channel(s) : 6 channels
Channel positions : Front: L C R, Side: L R, LFE
Sampling rate : 48.0 kHz
Frame rate : 187.500 FPS (256 SPF)
Compression mode : Lossy
Stream size : 260 MiB (3%)
Title : Italiano
Language : Italian
Service kind : Complete Main
Default : No
Forced : No

Audio #17
ID : 18
Format : E-AC-3
Format/Info : Enhanced Audio Coding 3
Format settings, Endianness : Big
Codec ID : A_EAC3
Duration : 56 min 41 s
Bit rate mode : Constant
Bit rate : 640 kb/s
Channel(s) : 6 channels
Channel positions : Front: L C R, Side: L R, LFE
Sampling rate : 48.0 kHz
Frame rate : 187.500 FPS (256 SPF)
Compression mode : Lossy
Stream size : 260 MiB (3%)
Title : Magyar
Language : Hungarian
Service kind : Complete Main
Default : No
Forced : No

Audio #18
ID : 19
Format : E-AC-3
Format/Info : Enhanced Audio Coding 3
Format settings, Endianness : Big
Codec ID : A_EAC3
Duration : 56 min 41 s
Bit rate mode : Constant
Bit rate : 640 kb/s
Channel(s) : 6 channels
Channel positions : Front: L C R, Side: L R, LFE
Sampling rate : 48.0 kHz
Frame rate : 187.500 FPS (256 SPF)
Compression mode : Lossy
Stream size : 260 MiB (3%)
Title : हिन्दी
Language : Hindi
Service kind : Complete Main
Default : No
Forced : No

Audio #19
ID : 20
Format : E-AC-3
Format/Info : Enhanced Audio Coding 3
Format settings, Endianness : Big
Codec ID : A_EAC3
Duration : 56 min 41 s
Bit rate mode : Constant
Bit rate : 640 kb/s
Channel(s) : 6 channels
Channel positions : Front: L C R, Side: L R, LFE
Sampling rate : 48.0 kHz
Frame rate : 187.500 FPS (256 SPF)
Compression mode : Lossy
Stream size : 260 MiB (3%)
Title : עברית
Language : Hebrew
Service kind : Complete Main
Default : No
Forced : No

Audio #20
ID : 21
Format : E-AC-3
Format/Info : Enhanced Audio Coding 3
Format settings, Endianness : Big
Codec ID : A_EAC3
Duration : 56 min 41 s
Bit rate mode : Constant
Bit rate : 640 kb/s
Channel(s) : 6 channels
Channel positions : Front: L C R, Side: L R, LFE
Sampling rate : 48.0 kHz
Frame rate : 187.500 FPS (256 SPF)
Compression mode : Lossy
Stream size : 260 MiB (3%)
Title : Ελληνικά
Language : Greek
Service kind : Complete Main
Default : No
Forced : No

Audio #21
ID : 22
Format : E-AC-3
Format/Info : Enhanced Audio Coding 3
Format settings, Endianness : Big
Codec ID : A_EAC3
Duration : 56 min 41 s
Bit rate mode : Constant
Bit rate : 640 kb/s
Channel(s) : 6 channels
Channel positions : Front: L C R, Side: L R, LFE
Sampling rate : 48.0 kHz
Frame rate : 187.500 FPS (256 SPF)
Compression mode : Lossy
Stream size : 260 MiB (3%)
Title : Čeština
Language : Czech
Service kind : Complete Main
Default : No
Forced : No

Audio #22
ID : 23
Format : E-AC-3
Format/Info : Enhanced Audio Coding 3
Format settings, Endianness : Big
Codec ID : A_EAC3
Duration : 56 min 41 s
Bit rate mode : Constant
Bit rate : 640 kb/s
Channel(s) : 6 channels
Channel positions : Front: L C R, Side: L R, LFE
Sampling rate : 48.0 kHz
Frame rate : 187.500 FPS (256 SPF)
Compression mode : Lossy
Stream size : 260 MiB (3%)
Title : বাংলা
Language : Bengali
Service kind : Complete Main
Default : No
Forced : No

Audio #23
ID : 24
Format : E-AC-3
Format/Info : Enhanced Audio Coding 3
Format settings, Endianness : Big
Codec ID : A_EAC3
Duration : 56 min 41 s
Bit rate mode : Constant
Bit rate : 224 kb/s
Channel(s) : 2 channels
Channel positions : Front: L R
Sampling rate : 48.0 kHz
Frame rate : 187.500 FPS (256 SPF)
Compression mode : Lossy
Stream size : 90.8 MiB (1%)
Title : 中文(繁體)
Language : Chinese
Service kind : Complete Main
Default : No
Forced : No

Audio #24
ID : 25
Format : E-AC-3
Format/Info : Enhanced Audio Coding 3
Format settings, Endianness : Big
Codec ID : A_EAC3
Duration : 56 min 41 s
Bit rate mode : Constant
Bit rate : 224 kb/s
Channel(s) : 2 channels
Channel positions : Front: L R
Sampling rate : 48.0 kHz
Frame rate : 187.500 FPS (256 SPF)
Compression mode : Lossy
Stream size : 90.8 MiB (1%)
Title : தமிழ்
Language : Tamil
Service kind : Complete Main
Default : No
Forced : No

Audio #25
ID : 26
Format : E-AC-3
Format/Info : Enhanced Audio Coding 3
Format settings, Endianness : Big
Codec ID : A_EAC3
Duration : 56 min 41 s
Bit rate mode : Constant
Bit rate : 224 kb/s
Channel(s) : 2 channels
Channel positions : Front: L R
Sampling rate : 48.0 kHz
Frame rate : 187.500 FPS (256 SPF)
Compression mode : Lossy
Stream size : 90.8 MiB (1%)
Title : Español (Latinoamérica)
Language : Spanish
Service kind : Complete Main
Default : No
Forced : No

Audio #26
ID : 27
Format : E-AC-3
Format/Info : Enhanced Audio Coding 3
Format settings, Endianness : Big
Codec ID : A_EAC3
Duration : 56 min 41 s
Bit rate mode : Constant
Bit rate : 224 kb/s
Channel(s) : 2 channels
Channel positions : Front: L R
Sampling rate : 48.0 kHz
Frame rate : 187.500 FPS (256 SPF)
Compression mode : Lossy
Stream size : 90.8 MiB (1%)
Title : Español (España)
Language : Spanish
Service kind : Complete Main
Default : No
Forced : No

Audio #27
ID : 28
Format : E-AC-3
Format/Info : Enhanced Audio Coding 3
Format settings, Endianness : Big
Codec ID : A_EAC3
Duration : 56 min 41 s
Bit rate mode : Constant
Bit rate : 224 kb/s
Channel(s) : 2 channels
Channel positions : Front: L R
Sampling rate : 48.0 kHz
Frame rate : 187.500 FPS (256 SPF)
Compression mode : Lossy
Stream size : 90.8 MiB (1%)
Title : Русский
Language : Russian
Service kind : Complete Main
Default : No
Forced : No

Audio #28
ID : 29
Format : E-AC-3
Format/Info : Enhanced Audio Coding 3
Format settings, Endianness : Big
Codec ID : A_EAC3
Duration : 56 min 41 s
Bit rate mode : Constant
Bit rate : 224 kb/s
Channel(s) : 2 channels
Channel positions : Front: L R
Sampling rate : 48.0 kHz
Frame rate : 187.500 FPS (256 SPF)
Compression mode : Lossy
Stream size : 90.8 MiB (1%)
Title : Português
Language : Portuguese
Service kind : Complete Main
Default : No
Forced : No

Audio #29
ID : 30
Format : E-AC-3
Format/Info : Enhanced Audio Coding 3
Format settings, Endianness : Big
Codec ID : A_EAC3
Duration : 56 min 41 s
Bit rate mode : Constant
Bit rate : 224 kb/s
Channel(s) : 2 channels
Channel positions : Front: L R
Sampling rate : 48.0 kHz
Frame rate : 187.500 FPS (256 SPF)
Compression mode : Lossy
Stream size : 90.8 MiB (1%)
Title : Polski
Language : Polish
Service kind : Complete Main
Default : No
Forced : No

Audio #30
ID : 31
Format : E-AC-3
Format/Info : Enhanced Audio Coding 3
Format settings, Endianness : Big
Codec ID : A_EAC3
Duration : 56 min 41 s
Bit rate mode : Constant
Bit rate : 224 kb/s
Channel(s) : 2 channels
Channel positions : Front: L R
Sampling rate : 48.0 kHz
Frame rate : 187.500 FPS (256 SPF)
Compression mode : Lossy
Stream size : 90.8 MiB (1%)
Title : Italiano
Language : Italian
Service kind : Complete Main
Default : No
Forced : No

Audio #31
ID : 32
Format : E-AC-3
Format/Info : Enhanced Audio Coding 3
Format settings, Endianness : Big
Codec ID : A_EAC3
Duration : 56 min 41 s
Bit rate mode : Constant
Bit rate : 224 kb/s
Channel(s) : 2 channels
Channel positions : Front: L R
Sampling rate : 48.0 kHz
Frame rate : 187.500 FPS (256 SPF)
Compression mode : Lossy
Stream size : 90.8 MiB (1%)
Title : Magyar
Language : Hungarian
Service kind : Complete Main
Default : No
Forced : No

Audio #32
ID : 33
Format : E-AC-3
Format/Info : Enhanced Audio Coding 3
Format settings, Endianness : Big
Codec ID : A_EAC3
Duration : 56 min 41 s
Bit rate mode : Constant
Bit rate : 224 kb/s
Channel(s) : 2 channels
Channel positions : Front: L R
Sampling rate : 48.0 kHz
Frame rate : 187.500 FPS (256 SPF)
Compression mode : Lossy
Stream size : 90.8 MiB (1%)
Title : हिन्दी
Language : Hindi
Service kind : Complete Main
Default : No
Forced : No

Audio #33
ID : 34
Format : E-AC-3
Format/Info : Enhanced Audio Coding 3
Format settings, Endianness : Big
Codec ID : A_EAC3
Duration : 56 min 41 s
Bit rate mode : Constant
Bit rate : 224 kb/s
Channel(s) : 2 channels
Channel positions : Front: L R
Sampling rate : 48.0 kHz
Frame rate : 187.500 FPS (256 SPF)
Compression mode : Lossy
Stream size : 90.8 MiB (1%)
Title : עברית
Language : Hebrew
Service kind : Complete Main
Default : No
Forced : No

Audio #34
ID : 35
Format : E-AC-3
Format/Info : Enhanced Audio Coding 3
Format settings, Endianness : Big
Codec ID : A_EAC3
Duration : 56 min 41 s
Bit rate mode : Constant
Bit rate : 224 kb/s
Channel(s) : 2 channels
Channel positions : Front: L R
Sampling rate : 48.0 kHz
Frame rate : 187.500 FPS (256 SPF)
Compression mode : Lossy
Stream size : 90.8 MiB (1%)
Title : Ελληνικά
Language : Greek
Service kind : Complete Main
Default : No
Forced : No

Audio #35
ID : 36
Format : E-AC-3
Format/Info : Enhanced Audio Coding 3
Format settings, Endianness : Big
Codec ID : A_EAC3
Duration : 56 min 41 s
Bit rate mode : Constant
Bit rate : 224 kb/s
Channel(s) : 2 channels
Channel positions : Front: L R
Sampling rate : 48.0 kHz
Frame rate : 187.500 FPS (256 SPF)
Compression mode : Lossy
Stream size : 90.8 MiB (1%)
Title : Čeština
Language : Czech
Service kind : Complete Main
Default : No
Forced : No

Audio #36
ID : 37
Format : E-AC-3
Format/Info : Enhanced Audio Coding 3
Format settings, Endianness : Big
Codec ID : A_EAC3
Duration : 56 min 41 s
Bit rate mode : Constant
Bit rate : 224 kb/s
Channel(s) : 2 channels
Channel positions : Front: L R
Sampling rate : 48.0 kHz
Frame rate : 187.500 FPS (256 SPF)
Compression mode : Lossy
Stream size : 90.8 MiB (1%)
Title : বাংলা
Language : Bengali
Service kind : Complete Main
Default : No
Forced : No

Text #1
ID : 38
Format : UTF-8
Codec ID : S_TEXT/UTF8
Codec ID/Info : UTF-8 Plain Text
Duration : 56 min 1 s
Bit rate : 34 b/s
Count of elements : 428
Stream size : 14.1 KiB (0%)
Title : Bosanski
Language : Bosnian
Default : Yes
Forced : No

Text #2
ID : 39
Format : UTF-8
Codec ID : S_TEXT/UTF8
Codec ID/Info : UTF-8 Plain Text
Duration : 55 min 59 s
Bit rate : 37 b/s
Count of elements : 518
Stream size : 15.2 KiB (0%)
Title : Dansk
Language : Danish
Default : No
Forced : No

Text #3
ID : 40
Format : UTF-8
Codec ID : S_TEXT/UTF8
Codec ID/Info : UTF-8 Plain Text
Duration : 55 min 59 s
Bit rate : 44 b/s
Count of elements : 562
Stream size : 18.1 KiB (0%)
Title : Deutsch
Language : German
Default : No
Forced : No

Text #4
ID : 41
Format : UTF-8
Codec ID : S_TEXT/UTF8
Codec ID/Info : UTF-8 Plain Text
Duration : 55 min 57 s
Bit rate : 38 b/s
Count of elements : 548
Stream size : 15.6 KiB (0%)
Title : English
Language : English
Default : No
Forced : No

Text #5
ID : 42
Format : UTF-8
Codec ID : S_TEXT/UTF8
Codec ID/Info : UTF-8 Plain Text
Duration : 55 min 59 s
Bit rate : 38 b/s
Count of elements : 552
Stream size : 15.9 KiB (0%)
Title : Español (España)
Language : Spanish
Default : No
Forced : No

Text #6
ID : 43
Format : UTF-8
Codec ID : S_TEXT/UTF8
Codec ID/Info : UTF-8 Plain Text
Duration : 56 min 0 s
Bit rate : 41 b/s
Count of elements : 523
Stream size : 17.1 KiB (0%)
Title : Español (Latinoamérica)
Language : Spanish
Default : No
Forced : No

Text #7
ID : 44
Format : UTF-8
Codec ID : S_TEXT/UTF8
Codec ID/Info : UTF-8 Plain Text
Duration : 55 min 57 s
Bit rate : 38 b/s
Count of elements : 558
Stream size : 15.6 KiB (0%)
Title : Français
Language : French
Default : No
Forced : No

Text #8
ID : 45
Format : UTF-8
Codec ID : S_TEXT/UTF8
Codec ID/Info : UTF-8 Plain Text
Duration : 56 min 1 s
Bit rate : 34 b/s
Count of elements : 418
Stream size : 14.0 KiB (0%)
Title : Hrvatski
Language : Croatian
Default : No
Forced : No

Text #9
ID : 46
Format : UTF-8
Codec ID : S_TEXT/UTF8
Codec ID/Info : UTF-8 Plain Text
Duration : 56 min 9 s
Bit rate : 42 b/s
Count of elements : 547
Stream size : 17.4 KiB (0%)
Title : Indonesia
Language : Indonesian
Default : No
Forced : No

Text #10
ID : 47
Format : UTF-8
Codec ID : S_TEXT/UTF8
Codec ID/Info : UTF-8 Plain Text
Duration : 55 min 59 s
Bit rate : 41 b/s
Count of elements : 553
Stream size : 17.0 KiB (0%)
Title : Italiano
Language : Italian
Default : No
Forced : No

Text #11
ID : 48
Format : UTF-8
Codec ID : S_TEXT/UTF8
Codec ID/Info : UTF-8 Plain Text
Duration : 55 min 59 s
Bit rate : 37 b/s
Count of elements : 551
Stream size : 15.5 KiB (0%)
Title : Magyar
Language : Hungarian
Default : No
Forced : No

Text #12
ID : 49
Format : UTF-8
Codec ID : S_TEXT/UTF8
Codec ID/Info : UTF-8 Plain Text
Duration : 55 min 59 s
Bit rate : 35 b/s
Count of elements : 551
Stream size : 14.4 KiB (0%)
Title : Nederlands
Language : Dutch
Default : No
Forced : No

Text #13
ID : 50
Format : UTF-8
Codec ID : S_TEXT/UTF8
Codec ID/Info : UTF-8 Plain Text
Duration : 55 min 59 s
Bit rate : 37 b/s
Count of elements : 518
Stream size : 15.4 KiB (0%)
Title : Norsk Bokmål
Language : Norwegian Bokmal
Default : No
Forced : No

Text #14
ID : 51
Format : UTF-8
Codec ID : S_TEXT/UTF8
Codec ID/Info : UTF-8 Plain Text
Duration : 56 min 28 s
Bit rate : 34 b/s
Count of elements : 545
Stream size : 14.1 KiB (0%)
Title : Polski
Language : Polish
Default : No
Forced : No

Text #15
ID : 52
Format : UTF-8
Codec ID : S_TEXT/UTF8
Codec ID/Info : UTF-8 Plain Text
Duration : 55 min 59 s
Bit rate : 39 b/s
Count of elements : 465
Stream size : 16.3 KiB (0%)
Title : Português (Brasil)
Language : Portuguese
Default : No
Forced : No

Text #16
ID : 53
Format : UTF-8
Codec ID : S_TEXT/UTF8
Codec ID/Info : UTF-8 Plain Text
Duration : 55 min 59 s
Bit rate : 38 b/s
Count of elements : 549
Stream size : 15.7 KiB (0%)
Title : Português (Portugal)
Language : Portuguese
Default : No
Forced : No

Text #17
ID : 54
Format : UTF-8
Codec ID : S_TEXT/UTF8
Codec ID/Info : UTF-8 Plain Text
Duration : 56 min 7 s
Bit rate : 35 b/s
Count of elements : 554
Stream size : 14.7 KiB (0%)
Title : Română
Language : Romanian
Default : No
Forced : No

Text #18
ID : 55
Format : UTF-8
Codec ID : S_TEXT/UTF8
Codec ID/Info : UTF-8 Plain Text
Duration : 55 min 57 s
Bit rate : 44 b/s
Count of elements : 441
Stream size : 18.2 KiB (0%)
Title : Shqip
Language : Albanian
Default : No
Forced : No

Text #19
ID : 56
Format : UTF-8
Codec ID : S_TEXT/UTF8
Codec ID/Info : UTF-8 Plain Text
Duration : 56 min 1 s
Bit rate : 31 b/s
Count of elements : 426
Stream size : 13.1 KiB (0%)
Title : Slovenščina
Language : Slovenian
Default : No
Forced : No

Text #20
ID : 57
Format : UTF-8
Codec ID : S_TEXT/UTF8
Codec ID/Info : UTF-8 Plain Text
Duration : 55 min 59 s
Bit rate : 38 b/s
Count of elements : 480
Stream size : 15.8 KiB (0%)
Title : Suomi
Language : Finnish
Default : No
Forced : No

Text #21
ID : 58
Format : UTF-8
Codec ID : S_TEXT/UTF8
Codec ID/Info : UTF-8 Plain Text
Duration : 55 min 59 s
Bit rate : 37 b/s
Count of elements : 488
Stream size : 15.2 KiB (0%)
Title : Svenska
Language : Swedish
Default : No
Forced : No

Text #22
ID : 59
Format : UTF-8
Codec ID : S_TEXT/UTF8
Codec ID/Info : UTF-8 Plain Text
Duration : 55 min 59 s
Bit rate : 37 b/s
Count of elements : 547
Stream size : 15.5 KiB (0%)
Title : Türkçe
Language : Turkish
Default : No
Forced : No

Text #23
ID : 60
Format : UTF-8
Codec ID : S_TEXT/UTF8
Codec ID/Info : UTF-8 Plain Text
Duration : 55 min 58 s
Bit rate : 36 b/s
Count of elements : 479
Stream size : 14.8 KiB (0%)
Title : Čeština
Language : Czech
Default : No
Forced : No

Text #24
ID : 61
Format : UTF-8
Codec ID : S_TEXT/UTF8
Codec ID/Info : UTF-8 Plain Text
Duration : 56 min 2 s
Bit rate : 67 b/s
Count of elements : 552
Stream size : 27.8 KiB (0%)
Title : Ελληνικά
Language : Greek
Default : No
Forced : No

Text #25
ID : 62
Format : UTF-8
Codec ID : S_TEXT/UTF8
Codec ID/Info : UTF-8 Plain Text
Duration : 55 min 59 s
Bit rate : 61 b/s
Count of elements : 553
Stream size : 25.0 KiB (0%)
Title : Български
Language : Bulgarian
Default : No
Forced : No

Text #26
ID : 63
Format : UTF-8
Codec ID : S_TEXT/UTF8
Codec ID/Info : UTF-8 Plain Text
Duration : 55 min 59 s
Bit rate : 69 b/s
Count of elements : 497
Stream size : 28.6 KiB (0%)
Title : Македонски
Language : Macedonian
Default : No
Forced : No

Text #27
ID : 64
Format : UTF-8
Codec ID : S_TEXT/UTF8
Codec ID/Info : UTF-8 Plain Text
Duration : 55 min 59 s
Bit rate : 61 b/s
Count of elements : 553
Stream size : 25.0 KiB (0%)
Title : Русский
Language : Russian
Default : No
Forced : No

Text #28
ID : 65
Format : UTF-8
Codec ID : S_TEXT/UTF8
Codec ID/Info : UTF-8 Plain Text
Duration : 55 min 59 s
Bit rate : 55 b/s
Count of elements : 553
Stream size : 22.9 KiB (0%)
Title : Српски
Language : Serbian
Default : No
Forced : No

Text #29
ID : 66
Format : UTF-8
Codec ID : S_TEXT/UTF8
Codec ID/Info : UTF-8 Plain Text
Duration : 56 min 19 s
Bit rate : 54 b/s
Count of elements : 559
Stream size : 22.4 KiB (0%)
Title : עברית
Language : Hebrew
Default : No
Forced : No

Text #30
ID : 67
Format : UTF-8
Codec ID : S_TEXT/UTF8
Codec ID/Info : UTF-8 Plain Text
Duration : 55 min 59 s
Bit rate : 53 b/s
Count of elements : 554
Stream size : 22.0 KiB (0%)
Title : العربية
Language : Arabic
Default : No
Forced : No

Text #31
ID : 68
Format : UTF-8
Codec ID : S_TEXT/UTF8
Codec ID/Info : UTF-8 Plain Text
Duration : 56 min 33 s
Bit rate : 101 b/s
Count of elements : 542
Stream size : 42.1 KiB (0%)
Title : मराठी
Language : Marathi
Default : No
Forced : No

Text #32
ID : 69
Format : UTF-8
Codec ID : S_TEXT/UTF8
Codec ID/Info : UTF-8 Plain Text
Duration : 56 min 33 s
Bit rate : 93 b/s
Count of elements : 542
Stream size : 38.9 KiB (0%)
Title : हिन्दी
Language : Hindi
Default : No
Forced : No

Text #33
ID : 70
Format : UTF-8
Codec ID : S_TEXT/UTF8
Codec ID/Info : UTF-8 Plain Text
Duration : 56 min 33 s
Bit rate : 97 b/s
Count of elements : 542
Stream size : 40.5 KiB (0%)
Title : বাংলা
Language : Bengali
Default : No
Forced : No

Text #34
ID : 71
Format : UTF-8
Codec ID : S_TEXT/UTF8
Codec ID/Info : UTF-8 Plain Text
Duration : 56 min 33 s
Bit rate : 104 b/s
Count of elements : 542
Stream size : 43.5 KiB (0%)
Title : தமிழ்
Language : Tamil
Default : No
Forced : No

Text #35
ID : 72
Format : UTF-8
Codec ID : S_TEXT/UTF8
Codec ID/Info : UTF-8 Plain Text
Duration : 56 min 33 s
Bit rate : 115 b/s
Count of elements : 542
Stream size : 47.8 KiB (0%)
Title : తెలుగు
Language : Telugu
Default : No
Forced : No

Text #36
ID : 73
Format : UTF-8
Codec ID : S_TEXT/UTF8
Codec ID/Info : UTF-8 Plain Text
Duration : 56 min 9 s
Bit rate : 77 b/s
Count of elements : 542
Stream size : 32.1 KiB (0%)
Title : ไทย
Language : Thai
Default : No
Forced : No

Text #37
ID : 74
Format : UTF-8
Codec ID : S_TEXT/UTF8
Codec ID/Info : UTF-8 Plain Text
Duration : 56 min 9 s
Bit rate : 32 b/s
Count of elements : 563
Stream size : 13.4 KiB (0%)
Title : 中文(中国)
Language : Chinese
Default : No
Forced : No

Text #38
ID : 75
Format : UTF-8
Codec ID : S_TEXT/UTF8
Codec ID/Info : UTF-8 Plain Text
Duration : 56 min 9 s
Bit rate : 32 b/s
Count of elements : 561
Stream size : 13.4 KiB (0%)
Title : 中文(繁體)
Language : Chinese
Default : No
Forced : No

Text #39
ID : 76
Format : UTF-8
Codec ID : S_TEXT/UTF8
Codec ID/Info : UTF-8 Plain Text
Duration : 55 min 57 s
Bit rate : 32 b/s
Count of elements : 472
Stream size : 13.4 KiB (0%)
Title : 日本語
Language : Japanese
Default : No
Forced : No

Text #40
ID : 77
Format : UTF-8
Codec ID : S_TEXT/UTF8
Codec ID/Info : UTF-8 Plain Text
Duration : 56 min 11 s
Bit rate : 45 b/s
Count of elements : 545
Stream size : 18.6 KiB (0%)
Title : 한국어
Language : Korean
Default : No
Forced : No





The Terror S01E09


The Terror S01E09


The Terror S01E09


The Terror S01E09


The Terror S01E09

All episodes