Please register here if you want to download anything!

If domain in your address bar is different from the list below
PLEASE LEAVE THAT SITE IMMEDIATELY
❗IT'S A DANGEROUS FAKE❗



Spicy Magazines for Men! ;-)

Featured TV Shows


Dynasty S01E03

Posted By: Tavaz
Dynasty S01E03

Dynasty S01E03
MOV | 640x360 | H264 @ 525 kbps | AAC @ 132 kbps | 1 h 25 min | 407 MiB
Genre: Drama

The reboot follows two of America’s wealthiest families, the Carringtons and the Colbys, as they feud for control over their fortune and their children focusing on Fallon Carrington, the daughter of billionaire Blake Carrington, and her soon-to-be stepmother, Cristal, a Hispanic woman marrying into this WASP family and America’s most powerful class.

34011ca9b53d4b039b588f6a57598acb.mp4 (406.5 MB)



General
Complete name : ./34011ca9b53d4b039b588f6a57598acb.mp4
Format : MPEG-4
Format profile : Base Media
Codec ID : isom (isom/iso2/avc1/mp41)
File size : 407 MiB
Duration : 1 h 25 min
Overall bit rate : 662 kb/s
Writing application : Lavf57.81.100

Video
ID : 1
Format : AVC
Format/Info : Advanced Video Codec
Format profile : High@L3
Format settings : CABAC / 4 Ref Frames
Format settings, CABAC : Yes
Format settings, RefFrames : 4 frames
Codec ID : avc1
Codec ID/Info : Advanced Video Coding
Duration : 1 h 25 min
Bit rate : 525 kb/s
Width : 640 pixels
Height : 360 pixels
Display aspect ratio : 16:9
Frame rate mode : Constant
Frame rate : 23.976 (24000/1001) FPS
Color space : YUV
Chroma subsampling : 4:2:0
Bit depth : 8 bits
Scan type : Progressive
Bits/(Pixel*Frame) : 0.095
Stream size : 322 MiB (79%)
Writing library : x264 core 152 r2851 ba24899
Encoding settings : cabac=1 / ref=1 / deblock=1:0:0 / analyse=0x3:0x113 / me=hex / subme=2 / psy=1 / psy_rd=1.00:0.00 / mixed_ref=0 / me_range=16 / chroma_me=1 / trellis=0 / 8x8dct=1 / cqm=0 / deadzone=21,11 / fast_pskip=1 / chroma_qp_offset=0 / threads=11 / lookahead_threads=2 / sliced_threads=0 / nr=0 / decimate=1 / interlaced=0 / bluray_compat=0 / constrained_intra=0 / bframes=3 / b_pyramid=2 / b_adapt=1 / b_bias=0 / direct=1 / weightb=1 / open_gop=0 / weightp=1 / keyint=250 / keyint_min=23 / scenecut=40 / intra_refresh=0 / rc_lookahead=10 / rc=crf / mbtree=1 / crf=21.0 / qcomp=0.60 / qpmin=0 / qpmax=69 / qpstep=4 / ip_ratio=1.40 / aq=1:1.00

Audio
ID : 2
Format : AAC
Format/Info : Advanced Audio Codec
Format profile : LC
Codec ID : mp4a-40-2
Duration : 1 h 25 min
Bit rate mode : Constant
Bit rate : 132 kb/s
Channel(s) : 2 channels
Channel positions : Front: L R
Sampling rate : 48.0 kHz
Frame rate : 46.875 FPS (1024 SPF)
Compression mode : Lossy
Stream size : 80.0 MiB (20%)
Default : Yes
Alternate group : 1

Text
ID : 1-CC1
Format : EIA-608
Muxing mode : SCTE 128 / DTVCC Transport
Muxing mode, more info : Muxed in Video #1
Duration : 1 h 25 min
Bit rate mode : Constant
Stream size : 0.00 Byte (0%)
Encoded stream size : 0.00 Byte (0%)
CaptionServiceName : CC1





Dynasty S01E03


Dynasty S01E03


Dynasty S01E03


Dynasty S01E03


Dynasty S01E03

All episodes