Featured TV Shows


The Twilight Zone S01E09

Posted By: Tavaz
1080p (FullHD) / WEBRip IMDb
The Twilight Zone S01E09

The Twilight Zone S01E09
WEBRip | MKV | 1920x1080 | English | H264 @ 4500 kbps | AAC @ 125 kbps | 41 min 39 s | 1.33 GiB
Genre: Drama, Mystery


An updated version of the classic TV series featuring various tales of science fiction, horror and mystery. Next stop ahead The Twilight Zone.

2115fb0f745b49d180bf58da4b651552.mkv (1.3 GB)



General
Unique ID : 335204388302622012052194582834387357928 (0xFC2E04530C21D213157C07FAE0DC10E8)
Complete name : ./2115fb0f745b49d180bf58da4b651552.mkv
Format : Matroska
Format version : Version 4 / Version 2
File size : 1.33 GiB
Duration : 41 min 39 s
Overall bit rate : 4 584 kb/s
Encoded date : UTC 2019-05-23 06:55:40
Writing application : mkvmerge v24.0.0 ('Beyond The Pale') 64-bit
Writing library : libebml v1.3.6 + libmatroska v1.4.9

Video
ID : 1
Format : AVC
Format/Info : Advanced Video Codec
Format profile : High@L4
Format settings : CABAC / 4 Ref Frames
Format settings, CABAC : Yes
Format settings, RefFrames : 4 frames
Format settings, GOP : M=4, N=48
Codec ID : V_MPEG4/ISO/AVC
Duration : 41 min 39 s
Bit rate : 4 500 kb/s
Width : 1 920 pixels
Height : 1 080 pixels
Display aspect ratio : 16:9
Frame rate mode : Constant
Frame rate : 23.976 (24000/1001) FPS
Color space : YUV
Chroma subsampling : 4:2:0
Bit depth : 8 bits
Scan type : Progressive
Bits/(Pixel*Frame) : 0.091
Stream size : 1.30 GiB (97%)
Writing library : x264 core 155
Encoding settings : cabac=1 / ref=4 / deblock=1:0:0 / analyse=0x3:0x113 / me=hex / subme=8 / psy=1 / psy_rd=1.00:0.00 / mixed_ref=1 / me_range=16 / chroma_me=1 / trellis=2 / 8x8dct=1 / cqm=0 / deadzone=21,11 / fast_pskip=1 / chroma_qp_offset=-2 / threads=6 / lookahead_threads=1 / sliced_threads=0 / nr=0 / decimate=1 / interlaced=0 / bluray_compat=0 / stitchable=1 / constrained_intra=0 / bframes=3 / b_pyramid=2 / b_adapt=1 / b_bias=0 / direct=3 / weightb=1 / open_gop=0 / weightp=2 / keyint=48 / keyint_min=4 / scenecut=0 / intra_refresh=0 / rc_lookahead=48 / rc=2pass / mbtree=1 / bitrate=4500 / ratetol=1.0 / qcomp=0.60 / qpmin=0 / qpmax=69 / qpstep=4 / cplxblur=20.0 / qblur=0.5 / vbv_maxrate=5400 / vbv_bufsize=4500 / nal_hrd=none / filler=0 / ip_ratio=1.40 / aq=1:1.00
Default : Yes
Forced : No
Color range : Limited
Color primaries : BT.709
Transfer characteristics : BT.709
Matrix coefficients : BT.709

Audio
ID : 2
Format : AAC
Format/Info : Advanced Audio Codec
Format profile : LC
Codec ID : A_AAC-2
Duration : 41 min 39 s
Bit rate : 125 kb/s
Channel(s) : 2 channels
Channel positions : Front: L R
Sampling rate : 48.0 kHz
Frame rate : 46.875 FPS (1024 SPF)
Compression mode : Lossy
Delay relative to video : -83 ms
Stream size : 37.4 MiB (3%)
Default : Yes
Forced : No





The Twilight Zone S01E09


The Twilight Zone S01E09


The Twilight Zone S01E09


The Twilight Zone S01E09


The Twilight Zone S01E09

All episodes