Featured TV Shows


The Wire S03E12

Posted By: Tavaz
The Wire S03E12

The Wire S03E12
MKV | 1920x1080 | English | H265 @ 1365 kbps | AAC @ 171 kbps | 58 min 7 s | 657 MiB
Subtitles: Français, Deutsch, Suomi, Español, Svenska, Nederlands, Dansk, English
Genre: Drama, Crime


Told from the points of view of both the Baltimore homicide and narcotics detectives and their targets, the series captures a universe in which the national war on drugs has become a permanent, self-sustaining bureaucracy, and distinctions between good and evil are routinely obliterated.

The Wire S03E12.mkv (653.0 MB)
The Wire S03E01.mkv (652.5 MB)
The Wire S03E05.mkv (656.6 MB)
The Wire S03E08.mkv (651.4 MB)
The Wire S03E06.mkv (657.2 MB)
The Wire S03E11.mkv (648.9 MB)
The Wire S03E10.mkv (650.5 MB)
The Wire S03E07.mkv (653.7 MB)
The Wire S03E02.mkv (654.8 MB)
The Wire S03E03.mkv (647.4 MB)
The Wire S03E04.mkv (653.8 MB)
The Wire S03E09.mkv (654.5 MB)



General
Unique ID : 244429397957903885129386095105458231066 (0xB7E363C22BD2B522BE1FDA2F51DED71A)
Complete name : ./Season 3/The Wire S03E06.mkv
Format : Matroska
Format version : Version 4 / Version 2
File size : 657 MiB
Duration : 58 min 7 s
Overall bit rate : 1 581 kb/s
Encoded date : UTC 2016-01-25 03:34:07
Writing application : mkvmerge v8.5.2 ('Crosses') 64bit
Writing library : libebml v1.3.3 + libmatroska v1.4.4

Video
ID : 1
Format : HEVC
Format/Info : High Efficiency Video Coding
Format profile : Main 10@L4@Main
Codec ID : V_MPEGH/ISO/HEVC
Duration : 57 min 16 s
Bit rate : 1 365 kb/s
Width : 1 920 pixels
Height : 1 080 pixels
Display aspect ratio : 16:9
Frame rate mode : Constant
Frame rate : 23.976 (24000/1001) FPS
Color space : YUV
Chroma subsampling : 4:2:0
Bit depth : 10 bits
Bits/(Pixel*Frame) : 0.027
Stream size : 559 MiB (85%)
Writing library : x265 1.7+497-975352b2c022:[Windows][GCC 5.2.0][64 bit] 10bit
Encoding settings : wpp / ctu=64 / min-cu-size=8 / max-tu-size=32 / tu-intra-depth=1 / tu-inter-depth=1 / me=1 / subme=2 / merange=57 / no-rect / no-amp / max-merge=2 / temporal-mvp / no-early-skip / rdpenalty=0 / no-tskip / no-tskip-fast / strong-intra-smoothing / no-lossless / no-cu-lossless / no-constrained-intra / fast-intra / open-gop / no-temporal-layers / interlace=0 / keyint=250 / min-keyint=23 / scenecut=40 / rc-lookahead=15 / lookahead-slices=0 / bframes=4 / bframe-bias=0 / b-adapt=0 / ref=2 / limit-refs=0 / weightp / no-weightb / aq-mode=1 / qg-size=32 / aq-strength=0.30 / cbqpoffs=0 / crqpoffs=0 / rd=2 / psy-rd=0.50 / rdoq-level=0 / psy-rdoq=0.00 / signhide / deblock=-2:-2 / sao / no-sao-non-deblock / b-pyramid / cutree / rc=2 / pass / bitrate=1363 / qcomp=0.80 / qpmin=0 / qpmax=51 / qpstep=4 / cplxblur=20.0 / qblur=0.5 / ipratio=1.10 / pbratio=1.10
Default : Yes
Forced : No

Audio
ID : 2
Format : AAC
Format/Info : Advanced Audio Codec
Format profile : HE-AAC / LC
Format settings : Explicit
Codec ID : A_AAC-2
Duration : 57 min 16 s
Bit rate : 171 kb/s
Channel(s) : 6 channels
Channel positions : Front: L C R, Side: L R, LFE
Sampling rate : 48.0 kHz / 24.0 kHz
Frame rate : 23.438 FPS (1024 SPF)
Compression mode : Lossy
Delay relative to video : 31 ms
Stream size : 70.1 MiB (11%)
Language : English
Default : Yes
Forced : No

Text #1
ID : 3
Format : VobSub
Muxing mode : zlib
Codec ID : S_VOBSUB
Codec ID/Info : Picture based subtitle format used on DVDs
Duration : 56 min 30 s
Bit rate : 7 100 b/s
Count of elements : 778
Stream size : 2.87 MiB (0%)
Language : English
Default : No
Forced : No

Text #2
ID : 4
Format : VobSub
Muxing mode : zlib
Codec ID : S_VOBSUB
Codec ID/Info : Picture based subtitle format used on DVDs
Duration : 57 min 47 s
Bit rate : 6 167 b/s
Count of elements : 723
Stream size : 2.55 MiB (0%)
Language : Danish
Default : No
Forced : No

Text #3
ID : 5
Format : VobSub
Muxing mode : zlib
Codec ID : S_VOBSUB
Codec ID/Info : Picture based subtitle format used on DVDs
Duration : 57 min 47 s
Bit rate : 5 665 b/s
Count of elements : 705
Stream size : 2.34 MiB (0%)
Language : Dutch
Default : No
Forced : No

Text #4
ID : 6
Format : VobSub
Muxing mode : zlib
Codec ID : S_VOBSUB
Codec ID/Info : Picture based subtitle format used on DVDs
Duration : 57 min 47 s
Bit rate : 5 981 b/s
Count of elements : 727
Stream size : 2.47 MiB (0%)
Language : Finnish
Default : No
Forced : No

Text #5
ID : 7
Format : VobSub
Muxing mode : zlib
Codec ID : S_VOBSUB
Codec ID/Info : Picture based subtitle format used on DVDs
Duration : 56 min 19 s
Bit rate : 6 730 b/s
Count of elements : 723
Stream size : 2.71 MiB (0%)
Language : French
Default : No
Forced : No

Text #6
ID : 8
Format : VobSub
Muxing mode : zlib
Codec ID : S_VOBSUB
Codec ID/Info : Picture based subtitle format used on DVDs
Duration : 56 min 19 s
Bit rate : 7 987 b/s
Count of elements : 788
Stream size : 3.22 MiB (0%)
Language : German
Default : No
Forced : No

Text #7
ID : 9
Format : VobSub
Muxing mode : zlib
Codec ID : S_VOBSUB
Codec ID/Info : Picture based subtitle format used on DVDs
Duration : 57 min 47 s
Bit rate : 6 366 b/s
Count of elements : 723
Stream size : 2.63 MiB (0%)
Language : Norwegian
Default : No
Forced : No

Text #8
ID : 10
Format : VobSub
Muxing mode : zlib
Codec ID : S_VOBSUB
Codec ID/Info : Picture based subtitle format used on DVDs
Duration : 56 min 19 s
Bit rate : 6 935 b/s
Count of elements : 787
Stream size : 2.79 MiB (0%)
Language : Spanish
Default : No
Forced : No

Text #9
ID : 11
Format : VobSub
Muxing mode : zlib
Codec ID : S_VOBSUB
Codec ID/Info : Picture based subtitle format used on DVDs
Duration : 57 min 47 s
Bit rate : 6 116 b/s
Count of elements : 723
Stream size : 2.53 MiB (0%)
Language : Spanish
Default : No
Forced : No

Text #10
ID : 12
Format : VobSub
Muxing mode : zlib
Codec ID : S_VOBSUB
Codec ID/Info : Picture based subtitle format used on DVDs
Duration : 57 min 47 s
Bit rate : 6 294 b/s
Count of elements : 727
Stream size : 2.60 MiB (0%)
Language : Swedish
Default : No
Forced : No

Menu
00:00:00.000 : en:00:00:00.000
00:05:17.651 : en:00:05:17.651
00:13:35.982 : en:00:13:35.982
00:20:39.447 : en:00:20:39.447
00:28:08.729 : en:00:28:08.729
00:36:33.400 : en:00:36:33.400
00:43:45.832 : en:00:43:45.832
00:50:58.597 : en:00:50:58.597
00:55:56.728 : en:00:55:56.728





The Wire S03E12


The Wire S03E12


The Wire S03E12


The Wire S03E12


The Wire S03E12

All episodes