The X-Files S11E01

Posted By: Tavaz
1080p (FullHD) / HDTV IMDb
The X-Files S11E01

The X-Files S11E01
HDTV | MKV | 1920x1074 | French / English | H264 @ 8767 kbps | E-AC-3 @ 192 kbps | 39 min 19 s | 2.48 GiB
Subtitles: French
Genre: Drama, Mystery

The exploits of FBI Special Agents Fox Mulder and Dana Scully who investigate X-Files: marginalized, unsolved cases involving paranormal phenomena. Mulder believes in the existence of aliens and the paranormal while Scully, a skeptic, is assigned to make scientific analyses of Mulder's discoveries that debunk Mulder's work and thus return him to mainstream cases.

0d03cb48d03a4110a32927d9a67f6b72.mkv (2.5 GB)



General
Unique ID : 306969864859128492573569666981902730462 (0xE6F03ED77E5607E88E6839408EE8C4DE)
Complete name : ./0d03cb48d03a4110a32927d9a67f6b72.mkv
Format : Matroska
Format version : Version 4 / Version 2
File size : 2.48 GiB
Duration : 39 min 19 s
Overall bit rate : 9 024 kb/s
Encoded date : UTC 2018-04-10 17:00:44
Writing application : mkvmerge v22.0.0 ('At The End Of The World') 32-bit
Writing library : libebml v1.3.5 + libmatroska v1.4.8

Video
ID : 1
Format : AVC
Format/Info : Advanced Video Codec
Format profile : High@L4.1
Format settings : CABAC / 4 Ref Frames
Format settings, CABAC : Yes
Format settings, RefFrames : 4 frames
Codec ID : V_MPEG4/ISO/AVC
Duration : 39 min 19 s
Bit rate : 8 768 kb/s
Width : 1 920 pixels
Height : 1 074 pixels
Display aspect ratio : 16:9
Frame rate mode : Constant
Frame rate : 25.000 FPS
Color space : YUV
Chroma subsampling : 4:2:0
Bit depth : 8 bits
Scan type : Progressive
Bits/(Pixel*Frame) : 0.170
Stream size : 2.41 GiB (97%)
Title : The X-Files S11E01
Writing library : x264 core 155 r2901 7d0ff22
Encoding settings : opencl=1 / cabac=1 / ref=4 / deblock=1:0:0 / analyse=0x3:0x133 / me=umh / subme=9 / psy=1 / psy_rd=1.00:0.00 / mixed_ref=1 / me_range=24 / chroma_me=1 / trellis=2 / 8x8dct=1 / cqm=0 / deadzone=21,11 / fast_pskip=0 / chroma_qp_offset=-2 / threads=12 / lookahead_threads=1 / sliced_threads=0 / nr=0 / decimate=1 / interlaced=0 / bluray_compat=0 / constrained_intra=0 / bframes=3 / b_pyramid=2 / b_adapt=2 / b_bias=0 / direct=3 / weightb=1 / open_gop=0 / weightp=2 / keyint=250 / keyint_min=25 / scenecut=40 / intra_refresh=0 / rc_lookahead=60 / rc=crf / mbtree=1 / crf=17.0 / qcomp=0.60 / qpmin=0 / qpmax=69 / qpstep=4 / ip_ratio=1.40 / aq=1:1.00
Language : French
Default : Yes
Forced : No
Color range : Limited
Matrix coefficients : BT.709

Audio #1
ID : 2
Format : E-AC-3
Format/Info : Enhanced Audio Coding 3
Format settings, Endianness : Big
Codec ID : A_EAC3
Duration : 39 min 19 s
Bit rate mode : Constant
Bit rate : 192 kb/s
Channel(s) : 6 channels
Channel positions : Front: L C R, Side: L R, LFE
Sampling rate : 48.0 kHz
Frame rate : 187.500 FPS (256 SPF)
Compression mode : Lossy
Stream size : 54.0 MiB (2%)
Title : Français E-AC3 5.1
Language : French
Service kind : Complete Main
Default : Yes
Forced : No

Audio #2
ID : 3
Format : AAC
Format/Info : Advanced Audio Codec
Format profile : HE-AAC / LC
Format settings : Explicit
Codec ID : A_AAC-2
Duration : 39 min 19 s
Bit rate : 61.9 kb/s
Channel(s) : 2 channels
Channel positions : Front: L R
Sampling rate : 48.0 kHz / 24.0 kHz
Frame rate : 23.438 FPS (1024 SPF)
Compression mode : Lossy
Stream size : 17.4 MiB (1%)
Title : Anglais HE-AAC 2.0
Language : English
Default : No
Forced : No

Text
ID : 5
Format : UTF-8
Codec ID : S_TEXT/UTF8
Codec ID/Info : UTF-8 Plain Text
Duration : 38 min 51 s
Bit rate : 69 b/s
Count of elements : 528
Stream size : 19.9 KiB (0%)
Title : Français
Language : French
Default : No
Forced : No





The X-Files S11E01


The X-Files S11E01


The X-Files S11E01


The X-Files S11E01


The X-Files S11E01

All episodes