Featured TV Shows


Truth Be Told S01E01

Posted By: Tavaz
720p (HD) / WEBRip IMDb
Truth Be Told S01E01

Truth Be Told S01E01
WEBRip | MKV | 1412x650 | English | H264 @ 2906 kbps | E-AC-3 @ 768 kbps | 45 min 39 s | 1.17 GiB
Subtitles: Swedish, Estonian, Telugu, Vietnamese, Slovenian, Hindi, Dutch, Danish, Bulgarian, Hungarian, Ukrainian, Lithuanian, Malay, French, Norwegian, Russian, Thai, Tamil, Finnish, Indonesian, Greek, Latvian, English, Italian, Portuguese, Czech, Japanese, German, Slovak, Hebrew, Polish, Arabic
Genre: Drama


Descend into the world of true-crime podcasts. New evidence compels podcaster Poppy Parnell to reopen the murder case that made her a media sensation.

f0958a8a5d23450baa667bad27c8ed96.mkv (1.2 GB)



General
Unique ID : 187132860219387038854531393389312855370 (0x8CC87A5825F0ACF6FCAE0A442C53CD4A)
Complete name : ./f0958a8a5d23450baa667bad27c8ed96.mkv
Format : Matroska
Format version : Version 4 / Version 2
File size : 1.17 GiB
Duration : 45 min 39 s
Overall bit rate : 3 682 kb/s
Encoded date : UTC 2019-12-06 06:54:07
Writing application : mkvmerge v30.1.0 ('Forever And More') 64-bit
Writing library : libebml v1.3.6 + libmatroska v1.4.9

Video
ID : 1
Format : AVC
Format/Info : Advanced Video Codec
Format profile : High@L3.2
Format settings : CABAC / 5 Ref Frames
Format settings, CABAC : Yes
Format settings, RefFrames : 5 frames
Codec ID : V_MPEG4/ISO/AVC
Duration : 45 min 39 s
Bit rate : 2 907 kb/s
Width : 1 412 pixels
Height : 650 pixels
Display aspect ratio : 2.2:1
Frame rate mode : Constant
Frame rate : 23.976 (24000/1001) FPS
Color space : YUV
Chroma subsampling : 4:2:0
Bit depth : 8 bits
Scan type : Progressive
Bits/(Pixel*Frame) : 0.132
Stream size : 949 MiB (79%)
Language : English
Default : Yes
Forced : No
Color range : Limited
Color primaries : BT.709
Transfer characteristics : BT.709
Matrix coefficients : BT.709

Audio
ID : 2
Format : E-AC-3
Format/Info : Enhanced Audio Coding 3
Format profile : E-AC-3+Atmos / E-AC-3
Format settings, Endianness : Big
Codec ID : A_EAC3
Duration : 45 min 39 s
Bit rate mode : Constant
Bit rate : 768 kb/s
Channel(s) : 15 objects / 6 channels
Channel positions : 15 objects / Front: L C R, Side: L R, LFE
Sampling rate : 48.0 kHz
Frame rate : 187.500 FPS (256 SPF)
Compression mode : Lossy
Stream size : 251 MiB (21%)
Language : English
Service kind : Complete Main
Default : Yes
Forced : No

Text #1
ID : 3
Format : UTF-8
Codec ID : S_TEXT/UTF8
Codec ID/Info : UTF-8 Plain Text
Duration : 45 min 30 s
Bit rate : 99 b/s
Count of elements : 660
Stream size : 33.3 KiB (0%)
Title : العربية
Language : Arabic
Default : No
Forced : No

Text #2
ID : 4
Format : UTF-8
Codec ID : S_TEXT/UTF8
Codec ID/Info : UTF-8 Plain Text
Duration : 45 min 30 s
Bit rate : 102 b/s
Count of elements : 625
Stream size : 34.0 KiB (0%)
Title : български
Language : Bulgarian
Default : No
Forced : No

Text #3
ID : 5
Format : UTF-8
Codec ID : S_TEXT/UTF8
Codec ID/Info : UTF-8 Plain Text
Duration : 45 min 30 s
Bit rate : 64 b/s
Count of elements : 654
Stream size : 21.5 KiB (0%)
Title : Čeština
Language : Czech
Default : No
Forced : No

Text #4
ID : 6
Format : UTF-8
Codec ID : S_TEXT/UTF8
Codec ID/Info : UTF-8 Plain Text
Duration : 45 min 30 s
Bit rate : 67 b/s
Count of elements : 647
Stream size : 22.4 KiB (0%)
Title : dansk
Language : Danish
Default : No
Forced : No

Text #5
ID : 7
Format : UTF-8
Codec ID : S_TEXT/UTF8
Codec ID/Info : UTF-8 Plain Text
Duration : 45 min 22 s
Bit rate : 70 b/s
Count of elements : 565
Stream size : 23.4 KiB (0%)
Title : Deutsch
Language : German
Default : No
Forced : No

Text #6
ID : 8
Format : UTF-8
Codec ID : S_TEXT/UTF8
Codec ID/Info : UTF-8 Plain Text
Duration : 45 min 30 s
Bit rate : 111 b/s
Count of elements : 655
Stream size : 37.2 KiB (0%)
Title : Ελληνικά
Language : Greek
Default : No
Forced : No

Text #7
ID : 9
Format : UTF-8
Codec ID : S_TEXT/UTF8
Codec ID/Info : UTF-8 Plain Text
Duration : 43 min 29 s
Bit rate : 69 b/s
Count of elements : 630
Stream size : 22.1 KiB (0%)
Title : English
Language : English
Default : No
Forced : No

Text #8
ID : 10
Format : UTF-8
Codec ID : S_TEXT/UTF8
Codec ID/Info : UTF-8 Plain Text
Duration : 43 min 29 s
Bit rate : 73 b/s
Count of elements : 667
Stream size : 23.3 KiB (0%)
Title : English [SDH]
Language : English
Default : No
Forced : No

Text #9
ID : 11
Format : UTF-8
Codec ID : S_TEXT/UTF8
Codec ID/Info : UTF-8 Plain Text
Duration : 45 min 30 s
Bit rate : 60 b/s
Count of elements : 652
Stream size : 20.2 KiB (0%)
Title : eesti
Language : Estonian
Default : No
Forced : No

Text #10
ID : 12
Format : UTF-8
Codec ID : S_TEXT/UTF8
Codec ID/Info : UTF-8 Plain Text
Duration : 45 min 30 s
Bit rate : 61 b/s
Count of elements : 653
Stream size : 20.5 KiB (0%)
Title : Suomi
Language : Finnish
Default : No
Forced : No

Text #11
ID : 13
Format : UTF-8
Codec ID : S_TEXT/UTF8
Codec ID/Info : UTF-8 Plain Text
Duration : 43 min 37 s
Bit rate : 62 b/s
Count of elements : 691
Stream size : 20.1 KiB (0%)
Title : Français (France)
Language : French
Default : No
Forced : No

Text #12
ID : 14
Format : UTF-8
Codec ID : S_TEXT/UTF8
Codec ID/Info : UTF-8 Plain Text
Duration : 45 min 30 s
Bit rate : 88 b/s
Count of elements : 660
Stream size : 29.6 KiB (0%)
Title : עברית
Language : Hebrew
Default : No
Forced : No

Text #13
ID : 15
Format : UTF-8
Codec ID : S_TEXT/UTF8
Codec ID/Info : UTF-8 Plain Text
Duration : 45 min 30 s
Bit rate : 177 b/s
Count of elements : 660
Stream size : 59.3 KiB (0%)
Title : हिन्दी
Language : Hindi
Default : No
Forced : No

Text #14
ID : 16
Format : UTF-8
Codec ID : S_TEXT/UTF8
Codec ID/Info : UTF-8 Plain Text
Duration : 45 min 30 s
Bit rate : 66 b/s
Count of elements : 653
Stream size : 22.2 KiB (0%)
Title : magyar
Language : Hungarian
Default : No
Forced : No

Text #15
ID : 17
Format : UTF-8
Codec ID : S_TEXT/UTF8
Codec ID/Info : UTF-8 Plain Text
Duration : 45 min 30 s
Bit rate : 63 b/s
Count of elements : 654
Stream size : 21.1 KiB (0%)
Title : Bahasa Indonesia
Language : Indonesian
Default : No
Forced : No

Text #16
ID : 18
Format : UTF-8
Codec ID : S_TEXT/UTF8
Codec ID/Info : UTF-8 Plain Text
Duration : 45 min 30 s
Bit rate : 65 b/s
Count of elements : 630
Stream size : 21.8 KiB (0%)
Title : Italiano
Language : Italian
Default : No
Forced : No

Text #17
ID : 19
Format : UTF-8
Codec ID : S_TEXT/UTF8
Codec ID/Info : UTF-8 Plain Text
Duration : 45 min 29 s
Bit rate : 54 b/s
Count of elements : 672
Stream size : 18.2 KiB (0%)
Title : 日本語
Language : Japanese
Default : No
Forced : No

Text #18
ID : 20
Format : UTF-8
Codec ID : S_TEXT/UTF8
Codec ID/Info : UTF-8 Plain Text
Duration : 45 min 30 s
Bit rate : 68 b/s
Count of elements : 656
Stream size : 23.0 KiB (0%)
Title : lietuvių
Language : Lithuanian
Default : No
Forced : No

Text #19
ID : 21
Format : UTF-8
Codec ID : S_TEXT/UTF8
Codec ID/Info : UTF-8 Plain Text
Duration : 45 min 30 s
Bit rate : 66 b/s
Count of elements : 654
Stream size : 22.0 KiB (0%)
Title : latviešu
Language : Latvian
Default : No
Forced : No

Text #20
ID : 22
Format : UTF-8
Codec ID : S_TEXT/UTF8
Codec ID/Info : UTF-8 Plain Text
Duration : 45 min 30 s
Bit rate : 69 b/s
Count of elements : 652
Stream size : 23.3 KiB (0%)
Title : Bahasa Melayu
Language : Malay
Default : No
Forced : No

Text #21
ID : 23
Format : UTF-8
Codec ID : S_TEXT/UTF8
Codec ID/Info : UTF-8 Plain Text
Duration : 45 min 30 s
Bit rate : 57 b/s
Count of elements : 544
Stream size : 19.3 KiB (0%)
Title : Nederlands
Language : Dutch
Default : No
Forced : No

Text #22
ID : 24
Format : UTF-8
Codec ID : S_TEXT/UTF8
Codec ID/Info : UTF-8 Plain Text
Duration : 45 min 30 s
Bit rate : 66 b/s
Count of elements : 652
Stream size : 22.3 KiB (0%)
Title : norsk
Language : Norwegian
Default : No
Forced : No

Text #23
ID : 25
Format : UTF-8
Codec ID : S_TEXT/UTF8
Codec ID/Info : UTF-8 Plain Text
Duration : 45 min 30 s
Bit rate : 64 b/s
Count of elements : 654
Stream size : 21.5 KiB (0%)
Title : polski
Language : Polish
Default : No
Forced : No

Text #24
ID : 26
Format : UTF-8
Codec ID : S_TEXT/UTF8
Codec ID/Info : UTF-8 Plain Text
Duration : 45 min 30 s
Bit rate : 61 b/s
Count of elements : 653
Stream size : 20.5 KiB (0%)
Title : Português (Brasil)
Language : Portuguese
Default : No
Forced : No

Text #25
ID : 27
Format : UTF-8
Codec ID : S_TEXT/UTF8
Codec ID/Info : UTF-8 Plain Text
Duration : 45 min 30 s
Bit rate : 69 b/s
Count of elements : 652
Stream size : 23.2 KiB (0%)
Title : Português
Language : Portuguese
Default : No
Forced : No

Text #26
ID : 28
Format : UTF-8
Codec ID : S_TEXT/UTF8
Codec ID/Info : UTF-8 Plain Text
Duration : 45 min 30 s
Bit rate : 107 b/s
Count of elements : 660
Stream size : 35.7 KiB (0%)
Title : Русский
Language : Russian
Default : No
Forced : No

Text #27
ID : 29
Format : UTF-8
Codec ID : S_TEXT/UTF8
Codec ID/Info : UTF-8 Plain Text
Duration : 45 min 30 s
Bit rate : 58 b/s
Count of elements : 653
Stream size : 19.4 KiB (0%)
Title : Slovenčina
Language : Slovak
Default : No
Forced : No

Text #28
ID : 30
Format : UTF-8
Codec ID : S_TEXT/UTF8
Codec ID/Info : UTF-8 Plain Text
Duration : 45 min 30 s
Bit rate : 56 b/s
Count of elements : 646
Stream size : 18.9 KiB (0%)
Title : slovenščina
Language : Slovenian
Default : No
Forced : No

Text #29
ID : 31
Format : UTF-8
Codec ID : S_TEXT/UTF8
Codec ID/Info : UTF-8 Plain Text
Duration : 45 min 30 s
Bit rate : 68 b/s
Count of elements : 649
Stream size : 22.7 KiB (0%)
Title : Svenska
Language : Swedish
Default : No
Forced : No

Text #30
ID : 32
Format : UTF-8
Codec ID : S_TEXT/UTF8
Codec ID/Info : UTF-8 Plain Text
Duration : 45 min 30 s
Bit rate : 209 b/s
Count of elements : 660
Stream size : 69.9 KiB (0%)
Title : தமிழ்
Language : Tamil
Default : No
Forced : No

Text #31
ID : 33
Format : UTF-8
Codec ID : S_TEXT/UTF8
Codec ID/Info : UTF-8 Plain Text
Duration : 45 min 30 s
Bit rate : 193 b/s
Count of elements : 660
Stream size : 64.6 KiB (0%)
Title : తెలుగు
Language : Telugu
Default : No
Forced : No

Text #32
ID : 34
Format : UTF-8
Codec ID : S_TEXT/UTF8
Codec ID/Info : UTF-8 Plain Text
Duration : 45 min 30 s
Bit rate : 168 b/s
Count of elements : 660
Stream size : 56.0 KiB (0%)
Title : ไทย
Language : Thai
Default : No
Forced : No

Text #33
ID : 35
Format : UTF-8
Codec ID : S_TEXT/UTF8
Codec ID/Info : UTF-8 Plain Text
Duration : 45 min 30 s
Bit rate : 106 b/s
Count of elements : 660
Stream size : 35.7 KiB (0%)
Title : українська
Language : Ukrainian
Default : No
Forced : No

Text #34
ID : 36
Format : UTF-8
Codec ID : S_TEXT/UTF8
Codec ID/Info : UTF-8 Plain Text
Duration : 45 min 30 s
Bit rate : 80 b/s
Count of elements : 655
Stream size : 26.7 KiB (0%)
Title : Tiếng Việt
Language : Vietnamese
Default : No
Forced : No





Truth Be Told S01E01


Truth Be Told S01E01


Truth Be Told S01E01


Truth Be Told S01E01


Truth Be Told S01E01

All episodes