Featured TV Shows


Chernobyl S01E03

Posted By: Tavaz
1080p (FullHD) / HDTV IMDb
Chernobyl S01E03

Chernobyl S01E03
HDTV | MKV | 1920x960 | French / English | H264 @ 6787 kbps | E-AC-3 @ 256 kbps | 59 min 18 s | 3.03 GiB
Subtitles: French
Genre: Drama


A dramatization of the true story of one of the worst man-made catastrophes in history, the catastrophic nuclear accident at Chernobyl. A tale of the brave men and women who sacrificed to save Europe from unimaginable disaster.

e6a0a8e83b7d45d78983dee2bf64ddd3.mkv (3.0 GB)



General
Unique ID : 84206866491463794364668897427225830359 (0x3F59A70ED20C0AB240300220AA67E3D7)
Complete name : ./e6a0a8e83b7d45d78983dee2bf64ddd3.mkv
Format : Matroska
Format version : Version 4 / Version 2
File size : 3.03 GiB
Duration : 59 min 18 s
Overall bit rate : 7 302 kb/s
Encoded date : UTC 2019-05-22 21:08:37
Writing application : mkvmerge v34.0.0 ('Sight and Seen') 32-bit
Writing library : libebml v1.3.7 + libmatroska v1.5.0

Video
ID : 1
Format : AVC
Format/Info : Advanced Video Codec
Format profile : High@L4.1
Format settings : CABAC / 4 Ref Frames
Format settings, CABAC : Yes
Format settings, RefFrames : 4 frames
Codec ID : V_MPEG4/ISO/AVC
Duration : 59 min 18 s
Bit rate : 6 788 kb/s
Width : 1 920 pixels
Height : 960 pixels
Display aspect ratio : 2.000
Frame rate mode : Constant
Frame rate : 25.000 FPS
Color space : YUV
Chroma subsampling : 4:2:0
Bit depth : 8 bits
Scan type : Progressive
Bits/(Pixel*Frame) : 0.147
Stream size : 2.81 GiB (93%)
Title : Chernobyl S01E03
Writing library : x264 core 157 r2969 d4099dd
Encoding settings : opencl=1 / cabac=1 / ref=4 / deblock=1:-2:-2 / analyse=0x3:0x133 / me=umh / subme=8 / psy=1 / psy_rd=1.00:0.00 / mixed_ref=1 / me_range=24 / chroma_me=1 / trellis=2 / 8x8dct=1 / cqm=0 / deadzone=21,11 / fast_pskip=0 / chroma_qp_offset=-2 / threads=24 / lookahead_threads=4 / sliced_threads=0 / nr=0 / decimate=1 / interlaced=0 / bluray_compat=0 / constrained_intra=0 / bframes=3 / b_pyramid=2 / b_adapt=2 / b_bias=0 / direct=3 / weightb=1 / open_gop=0 / weightp=2 / keyint=250 / keyint_min=25 / scenecut=40 / intra_refresh=0 / rc_lookahead=60 / rc=crf / mbtree=1 / crf=17.0 / qcomp=0.60 / qpmin=0 / qpmax=69 / qpstep=4 / ip_ratio=1.40 / aq=1:1.00
Language : French
Default : Yes
Forced : No
Color range : Limited
Matrix coefficients : BT.709

Audio #1
ID : 2
Format : E-AC-3
Format/Info : Enhanced Audio Coding 3
Format settings, Endianness : Big
Codec ID : A_EAC3
Duration : 59 min 18 s
Bit rate mode : Constant
Bit rate : 256 kb/s
Channel(s) : 6 channels
Channel positions : Front: L C R, Side: L R, LFE
Sampling rate : 48.0 kHz
Frame rate : 187.500 FPS (256 SPF)
Compression mode : Lossy
Stream size : 109 MiB (4%)
Title : Français E-AC3 5.1
Language : French
Service kind : Complete Main
Default : Yes
Forced : No

Audio #2
ID : 3
Format : E-AC-3
Format/Info : Enhanced Audio Coding 3
Format settings, Endianness : Big
Codec ID : A_EAC3
Duration : 59 min 18 s
Bit rate mode : Constant
Bit rate : 256 kb/s
Channel(s) : 6 channels
Channel positions : Front: L C R, Side: L R, LFE
Sampling rate : 48.0 kHz
Frame rate : 187.500 FPS (256 SPF)
Compression mode : Lossy
Stream size : 109 MiB (4%)
Title : Anglais E-AC3 5.1
Language : English
Service kind : Complete Main
Default : No
Forced : No

Text
ID : 5
Format : UTF-8
Codec ID : S_TEXT/UTF8
Codec ID/Info : UTF-8 Plain Text
Duration : 54 min 26 s
Bit rate : 45 b/s
Count of elements : 613
Stream size : 18.0 KiB (0%)
Title : Français
Language : French
Default : No
Forced : No





Chernobyl S01E03


Chernobyl S01E03


Chernobyl S01E03


Chernobyl S01E03


Chernobyl S01E03

All episodes