Hawaii 5-0 S08E03

Posted By: Tavaz
SD / HDTV IMDb
Hawaii 5-0 S08E03

Hawaii 5-0 S08E03
HDTV | MKV | 720x404 | French | H264 @ 1144 kbps | AAC @ 122 kbps | 40 min 25 s | 367 MiB
Genre: Action, Crime, Drame

Hawaii Five-0 est un remake de la série éponyme des années 60. Steve McGarrett est un officier décoré de la Navy redevenu policier. Il revient à Honolulu pour enquêter sur le meurtre de son père et reste après que le Gouverneur d'Hawaï l'ait convaincu de diriger une nouvelle équipe et rejoindre l'unité des forces spéciales, qui combat le crime à Hawaï.

hawaii.five-0.2010.s08e03.french.hdtv.x264-amb3r.mkv (366.8 MB)



General
Unique ID : 269946747463340011524472887066639911634 (0xCB15DA390BDF0F756F1B5A917782CAD2)
Complete name : ./hawaii.five-0.2010.s08e03.french.hdtv.x264-amb3r.mkv
Format : Matroska
Format version : Version 2
File size : 367 MiB
Duration : 40 min 25 s
Overall bit rate : 1 269 kb/s
Encoded date : UTC 2018-02-11 21:25:20
Writing application : mkvmerge v20.0.0 ('I Am The Sun') 64-bit
Writing library : libebml v1.3.5 + libmatroska v1.4.8

Video
ID : 1
Format : AVC
Format/Info : Advanced Video Codec
Format profile : High@L3.1
Format settings : CABAC / 5 Ref Frames
Format settings, CABAC : Yes
Format settings, RefFrames : 5 frames
Codec ID : V_MPEG4/ISO/AVC
Duration : 40 min 25 s
Bit rate : 1 144 kb/s
Width : 720 pixels
Height : 404 pixels
Display aspect ratio : 16:9
Frame rate mode : Constant
Frame rate : 25.000 FPS
Color space : YUV
Chroma subsampling : 4:2:0
Bit depth : 8 bits
Scan type : Progressive
Bits/(Pixel*Frame) : 0.157
Stream size : 331 MiB (90%)
Writing library : x264 core 155 r2901 7d0ff22
Encoding settings : cabac=1 / ref=5 / deblock=1:-3:-3 / analyse=0x3:0x112 / me=umh / subme=8 / psy=1 / psy_rd=1.00:0.00 / mixed_ref=1 / me_range=32 / chroma_me=1 / trellis=2 / 8x8dct=1 / cqm=0 / deadzone=21,11 / fast_pskip=0 / chroma_qp_offset=-2 / threads=12 / lookahead_threads=3 / sliced_threads=0 / nr=0 / decimate=1 / interlaced=0 / bluray_compat=0 / constrained_intra=0 / bframes=5 / b_pyramid=2 / b_adapt=2 / b_bias=0 / direct=3 / weightb=1 / open_gop=0 / weightp=2 / keyint=250 / keyint_min=25 / scenecut=40 / intra_refresh=0 / rc_lookahead=50 / rc=crf / mbtree=1 / crf=19.0 / qcomp=0.60 / qpmin=0 / qpmax=69 / qpstep=4 / vbv_maxrate=17500 / vbv_bufsize=17500 / crf_max=0.0 / nal_hrd=none / filler=0 / ip_ratio=1.40 / aq=1:1.00
Default : Yes
Forced : No
Color range : Limited
Color primaries : BT.709
Transfer characteristics : BT.709
Matrix coefficients : BT.709

Audio
ID : 2
Format : AAC
Format/Info : Advanced Audio Codec
Format profile : LC
Codec ID : A_AAC-2
Duration : 40 min 25 s
Bit rate : 122 kb/s
Channel(s) : 2 channels
Channel positions : Front: L R
Sampling rate : 48.0 kHz
Frame rate : 46.875 FPS (1024 SPF)
Compression mode : Lossy
Delay relative to video : 9 ms
Stream size : 35.3 MiB (10%)
Language : French
Default : Yes
Forced : No





Hawaii 5-0 S08E03


Hawaii 5-0 S08E03


Hawaii 5-0 S08E03


Hawaii 5-0 S08E03


Hawaii 5-0 S08E03

All episodes