Featured TV Shows


Corey White's Roadmap to Paradise S01E09

Posted By: Tavaz
Corey White's Roadmap to Paradise S01E09

Corey White's Roadmap to Paradise S01E09
MKV | 640x480 | H264 @ 304 kbps | MPEG Audio @ 128 kbps | 17 min 24 s | 54.9 MiB
Genre: Comedy

Under-qualified comedian Corey White tries to solve the biggest problems facing everyday Australians. Watch Corey's collision course with conventional wisdom as he tries to fix things his way.

Corey.Whites.Roadmap.To.Paradise.S01E09.480p.x264-mSD.mkv (54.9 MB)



General
Unique ID : 121285323717740561419486914296291144787 (0x5B3EB42420C4E4B76CCAF55CC3CA3453)
Complete name : ./Corey.Whites.Roadmap.To.Paradise.S01E09.480p.x264-mSD.mkv
Format : Matroska
Format version : Version 4 / Version 2
File size : 54.9 MiB
Duration : 17 min 24 s
Overall bit rate : 441 kb/s
Writing application : Lavf57.79.100
Writing library : Lavf57.79.100
ErrorDetectionType : Per level 1

Video
ID : 1
Format : AVC
Format/Info : Advanced Video Codec
Format profile : High@L3
Format settings : CABAC / 4 Ref Frames
Format settings, CABAC : Yes
Format settings, RefFrames : 4 frames
Codec ID : V_MPEG4/ISO/AVC
Duration : 17 min 24 s
Bit rate : 304 kb/s
Width : 640 pixels
Height : 480 pixels
Display aspect ratio : 16:9
Frame rate mode : Constant
Frame rate : 25.000 FPS
Color space : YUV
Chroma subsampling : 4:2:0
Bit depth : 8 bits
Scan type : Progressive
Bits/(Pixel*Frame) : 0.040
Stream size : 37.8 MiB (69%)
Writing library : x264 core 152 r2851 ba24899
Encoding settings : cabac=1 / ref=1 / deblock=1:0:0 / analyse=0x3:0x113 / me=hex / subme=2 / psy=1 / psy_rd=1.00:0.00 / mixed_ref=0 / me_range=16 / chroma_me=1 / trellis=0 / 8x8dct=1 / cqm=0 / deadzone=21,11 / fast_pskip=1 / chroma_qp_offset=0 / threads=12 / lookahead_threads=3 / sliced_threads=0 / nr=0 / decimate=1 / interlaced=0 / bluray_compat=0 / constrained_intra=0 / bframes=3 / b_pyramid=2 / b_adapt=1 / b_bias=0 / direct=1 / weightb=1 / open_gop=0 / weightp=1 / keyint=250 / keyint_min=25 / scenecut=40 / intra_refresh=0 / rc_lookahead=10 / rc=crf / mbtree=1 / crf=23.0 / qcomp=0.60 / qpmin=0 / qpmax=69 / qpstep=4 / ip_ratio=1.40 / aq=1:1.00
Default : Yes
Forced : No
Statistics Tags Issue : mkvmerge v19.0.0 ('Brave Captain') 64-bit 2018-06-30 05:20:32 / Lavf57.79.100
FromStats_BitRate : 1686085
FromStats_Duration : 00:17:24.023000000
FromStats_FrameCount : 26100
FromStats_StreamSize : 220034096

Audio
ID : 2
Format : MPEG Audio
Format version : Version 1
Format profile : Layer 3
Format settings : Joint stereo / MS Stereo
Mode : Joint stereo
Mode extension : MS Stereo
Codec ID : A_MPEG/L3
Codec ID/Hint : MP3
Duration : 17 min 24 s
Bit rate mode : Constant
Bit rate : 128 kb/s
Channel(s) : 2 channels
Sampling rate : 48.0 kHz
Compression mode : Lossy
Stream size : 15.9 MiB (29%)
Writing library : LAME3.99.5
Default : Yes
Forced : No
Statistics Tags Issue : mkvmerge v19.0.0 ('Brave Captain') 64-bit 2018-06-30 05:20:32 / Lavf57.79.100
FromStats_BitRate : 256000
FromStats_Duration : 00:17:24.023000000
FromStats_FrameCount : 43500
FromStats_StreamSize : 33408000





Corey White's Roadmap to Paradise S01E09


Corey White's Roadmap to Paradise S01E09


Corey White's Roadmap to Paradise S01E09


Corey White's Roadmap to Paradise S01E09

All episodes