NHK - 10 Years with Hayao Miyazaki (2019)

Posted By: notbanned
720p (HD) / HDTV
NHK - 10 Years with Hayao Miyazaki (2019)

NHK - 10 Years with Hayao Miyazaki (2019)
HDTV | 1280x720 | .MKV/AVC @ 1051 Kbps | 4x~48min | 1.61 GiB
Audio: English AAC 128 kbps, 2 channels | Subs: None
Genre: Documentary

A 4-part documentary chronicling the creative process of the legendary Japanese filmmaker. He is shown as a passionate artisan, a steadfast trailblazer, and a father butting heads with his son.

General
Unique ID : 153633422320940203007008021994989587393 (0x7394B889AB354FD68B336BE40A5A8BC1)
Complete name : 10.Years.With.Hayao.Miyazaki.1of4.720p.mkv
Format : Matroska
Format version : Version 4 / Version 2
File size : 414 MiB
Duration : 48 min 59 s
Overall bit rate : 1 182 kb/s

Video
ID : 1
Format : AVC
Format/Info : Advanced Video Codec
Format profile : High@L3.1
Format settings, CABAC : Yes
Format settings, ReFrames : 4 frames
Codec ID : V_MPEG4/ISO/AVC
Duration : 48 min 59 s
Bit rate : 1 051 kb/s
Nominal bit rate : 1 116 kb/s
Width : 1 280 pixels
Height : 720 pixels
Display aspect ratio : 16:9
Frame rate mode : Constant
Frame rate : 30.000 FPS
Color space : YUV
Chroma subsampling : 4:2:0
Bit depth : 8 bits
Scan type : Progressive
Bits/(Pixel*Frame) : 0.038
Stream size : 368 MiB (89%)
Writing library : x264 core 136 r63M 8fcf9de
Encoding settings : cabac=1 / ref=3 / deblock=1:0:0 / analyse=0x3:0x113 / me=hex / subme=7 / psy=1 / psy_rd=1.00:0.00 / mixed_ref=1 / me_range=16 / chroma_me=1 / trellis=1 / 8x8dct=1 / cqm=0 / deadzone=21,11 / fast_pskip=1 / chroma_qp_offset=-2 / threads=24 / lookahead_threads=4 / sliced_threads=0 / nr=0 / decimate=1 / interlaced=0 / bluray_compat=0 / constrained_intra=0 / bframes=3 / b_pyramid=2 / b_adapt=1 / b_bias=0 / direct=1 / weightb=1 / open_gop=0 / weightp=2 / keyint=90 / keyint_min=9 / scenecut=0 / intra_refresh=0 / rc_lookahead=40 / rc=cbr / mbtree=1 / bitrate=1116 / ratetol=1.0 / qcomp=0.60 / qpmin=0 / qpmax=69 / qpstep=4 / vbv_maxrate=1116 / vbv_bufsize=2232 / nal_hrd=none / ip_ratio=1.40 / aq=1:1.00
Default : Yes
Forced : No

Audio
ID : 2
Format : AAC
Format/Info : Advanced Audio Codec
Format profile : LC
Codec ID : A_AAC
Duration : 48 min 59 s
Bit rate : 128 kb/s
Channel(s) : 2 channels
Channel positions : Front: L R
Sampling rate : 44.1 kHz
Frame rate : 43.066 FPS (1024 spf)
Compression mode : Lossy
Delay relative to video : -23 ms
Stream size : 44.8 MiB (11%)
Default : Yes
Forced : No


Screenshots:

NHK - 10 Years with Hayao Miyazaki (2019)

NHK - 10 Years with 			  		  		  		 	 	  	 			   		   	  		 			  		 	 	  	 			   		   	  			  	  		   	  	 			   		   	  		 		   			   			 Hayao Miyazaki (2019)

NHK - 10 Years with Hayao Miyazaki (2019)

NHK - 10 Years with Hayao Miyazaki (2019)