Tags
Language
Tags

Discovery Channel - 100 Days Wild: Series 1 (2019)

Posted By: notbanned
1080p (FullHD) / HDTV
Discovery Channel - 100 Days Wild: Series 1 (2019)

Discovery Channel - 100 Days Wild: Series 1 (2019)
HDTV | 1920x1080 | .MP4/AVC @ 4526 Kbps | 6x~41min | 8.19 GiB
Audio: English AAC 160 kbps, 2 channels | Subs: English
Genre: Documentary

Have you ever wondered if you could give up your connected way of life and live off the land where you lay your head each night? To thrive in a tightknit community living off the land might seem like a nightmare for some, but there is a group of people who find it exhilarating to use the Earth's natural resources to create a way of life. This new series spotlights a new generation who leave their homes and every creature comfort behind as they set out to take on a vast expanse of Alaska. They must work together to establish a self-sustaining colony where they make their own rules all before winter arrives.

Part 1: Entering Wild, Wild Country
Leaving comfortable lives behind, stranger’s journey to Alaska chasing dreams of an off-grid community. With only 100 days until winter, it's a race against nature. They immediately set off to hunt moose, but struggle against the elements and each other.

Part 2: Rogue Rage
The newly-formed group desperately hunts for moose. When Oliver refuses to go along with the plan and is an obstacle in the line of fire, Andrew pushes back. Army veteran Adam arrives at base camp and immediately tackles critical building projects.

Part 3: Under House Arrest
Andrew and Gerrid return victorious from the moose hunt, uniting the band for the first time. But a sudden cold spell leads to a scramble to make winter shelters. Oliver's refusal to follow the group's plan leads to an explosive confrontation.

Part 4: Zombie Fish Apocalypse
A disastrous fish haul threatens the colony's food supply. Pushing to build a second outpost, Adam sets off down river alone but when his canoe capsizes, he's at risk for hypothermia. Tensions between Oliver and the group reach a boiling point.

Part 5: Frozen Out
Oliver's refusal to help prep fish is the last straw for Andrew and Jennifer, so the outpost founders push the others to force Oliver out. A sudden temperature plunge cuts Adam and Evan's bear hunt short. Winter's coming but the group is far from ready.

Part 6: Off Grid & under Pressure
Seven strangers come together to create a self-sustaining community in Alaska's wilderness. Over the next 100 days, they struggle to gather food and build shelters before winter arrives. Clashing personalities and priorities put everything at risk.

General
Complete name : 100.Days.Wild.Series.1.Part.1.Entering.Wild.Wild.Country.1080p.mp4
Format : MPEG-4
Format profile : Base Media
Codec ID : isom (isom)
File size : 1.36 GiB
Duration : 41 min 34 s
Overall bit rate mode : Variable
Overall bit rate : 4 689 kb/s

Video
ID : 1
Format : AVC
Format/Info : Advanced Video Codec
Format profile : High@L4.1
Format settings, CABAC : No
Format settings, ReFrames : 2 frames
Format settings, GOP : M=1, N=12
Codec ID : avc1
Codec ID/Info : Advanced Video Coding
Duration : 41 min 34 s
Bit rate : 4 526 kb/s
Maximum bit rate : 20.7 Mb/s
Width : 1 920 pixels
Height : 1 080 pixels
Display aspect ratio : 16:9
Frame rate mode : Constant
Frame rate : 23.976 (24000/1001) FPS
Color space : YUV
Chroma subsampling : 4:2:0
Bit depth : 8 bits
Scan type : Progressive
Bits/(Pixel*Frame) : 0.091
Stream size : 1.31 GiB (97%)
Language : English
Encoded date : UTC 2020-09-22 22:30:31
Tagged date : UTC 2020-09-23 10:47:53

Audio
ID : 2
Format : AAC
Format/Info : Advanced Audio Codec
Format profile : LC
Codec ID : 40
Duration : 41 min 34 s
Bit rate mode : Variable
Bit rate : 160 kb/s
Maximum bit rate : 209 kb/s
Channel(s) : 2 channels
Channel positions : Front: L R
Sampling rate : 48.0 kHz
Frame rate : 46.875 FPS (1024 spf)
Compression mode : Lossy
Stream size : 47.6 MiB (3%)
Language : English
Encoded date : UTC 2020-09-23 10:47:27
Tagged date : UTC 2020-09-23 10:47:53

Text
ID : 3
Format : Timed Text
Codec ID : tx3g
Duration : 41 min 32 s
Bit rate mode : Variable
Bit rate : 137 b/s
Stream size : 41.8 KiB (0%)
Forced : No
Encoded date : UTC 2020-09-23 10:47:53
Tagged date : UTC 2020-09-23 10:47:53


Screenshots:

Discovery Channel - 100 Days Wild: Series 1 (2019)

Discovery Channel - 100 Days Wild: Series 1 (2019)

Discovery Channel - 100 Days Wild: Series 1 (2019)

Discovery Channel - 100 Days Wild: Series 1 (2019)