Subcategories

Dog Days`` (2015)

Posted By: Lebedev30
Dog Days`` (2015)

Dog Days`` (2015)
BD-Remux | m2ts | 1920x1080 | H264@~41 Mbps | 12x ~ 23mn | 12x ~6.9 Gb
Japanese PCM@2304 Kbps | 2 channels | Subtitles: none
Genre: comedy, ecchi, fantasy, seinen


Description:
Rebecca Anderson gets ready to travel to Pastillage from Japan, while Cinque Izumi and Takatsuki Nanami embark on a journey to Biscotti and Galette all the way from England. However, a sudden lightning strike during teleportation sends Cinque and Nanami off course. Eventually, they end up in the great Dragon Forest, protected by a Dragon Priestess named Sharu. She tells them that demons have been recently appearing in the forest, attacking dragons and hurting other creatures. Despite Sharu's protests, the heroes decide to help her fight the demons, but will they manage to defeat this new dark threat?


01. Once Again, the Hero Returns
02. Dragon Priestess
03. Decisive Battle! The Dragon`s Forest!
04. What`s Passed On
05. Exploration of the Crystal Mines!
06. The Lion`s Arranged Marriage
07. The Little Prince and the Legendary Hero
08. Recollection: The Story of the Hero and the Princess
09. The Star Whale in the Sky Sea
10. The Sky Priestess and the Star People
11. Song of the Stars
12. Homecoming


General
Format : BDAV
Format/Info : Blu-ray Video
File size : 6.89 GiB
Duration : 23mn 33s
Overall bit rate mode : Variable
Overall bit rate : 41.9 Mbps
Maximum Overall bit rate : 48.0 Mbps

Video
ID : 4113 (0x1011)
Menu ID : 1 (0x1)
Format : AVC
Format/Info : Advanced Video Codec
Format profile : High@L4.1
Format settings, CABAC : Yes
Format settings, ReFrames : 4 frames
Codec ID : 27
Duration : 23mn 33s
Bit rate mode : Variable
Bit rate : 37.9 Mbps
Maximum bit rate : 39.0 Mbps
Width : 1 920 pixels
Height : 1 080 pixels
Display aspect ratio : 16:9
Frame rate : 23.976 fps
Color space : YUV
Chroma subsampling : 4:2:0
Bit depth : 8 bits
Scan type : Progressive
Bits/(Pixel*Frame) : 0.762
Stream size : 6.24 GiB (91%)

Audio
ID : 4352 (0x1100)
Menu ID : 1 (0x1)
Format : PCM
Format settings, Endianness : Big
Format settings, Sign : Signed
Muxing mode : Blu-ray
Codec ID : 128
Duration : 23mn 33s
Bit rate mode : Constant
Bit rate : 2 304 Kbps
Channel(s) : 2 channels
Channel positions : Front: L R
Sampling rate : 48.0 KHz
Bit depth : 24 bits
Stream size : 388 MiB (6%)


Screenshots

Dog Days`` (2015)

Dog Days`` (2015)

Dog Days`` (2015)


My publications | Rss Channel