Subcategories

Shinmai Maou no Testament Burst (2016)

Posted By: Lebedev30
Shinmai Maou no Testament Burst (2016)

Shinmai Maou no Testament Burst (2016)
BD-Remux | m2ts | 1920x1080 | H264@~43 Mbps | 1x ~ 23mn | 1x ~7.1 Gb
Japanese PCM@1536 Kbps | 2 channels | Subtitles: none
Genre: action, comedy, fantasy, romance, shounen


Description:
A typical morning at the Toujou household: the succubus Maria yet again sets up a misunderstanding between Basara and Mio, not ending so well for Basara. Yuki is unperturbed by all of this though. And the day at school continues to put Basara into compromising situations, ending up in nurse Hasegawa Chisato's infirmary. Back at home the mischievous Maria begins the preparations for Mio's birthday…


01. OAD


General
Format : BDAV
Format/Info : Blu-ray Video
File size : 7.19 GiB
Duration : 23mn 52s
Overall bit rate mode : Variable
Overall bit rate : 43.1 Mbps
Maximum Overall bit rate : 48.0 Mbps

Video
ID : 4113 (0x1011)
Menu ID : 1 (0x1)
Format : AVC
Format/Info : Advanced Video Codec
Format profile : High@L4.1
Format settings, CABAC : Yes
Format settings, ReFrames : 4 frames
Codec ID : 27
Duration : 23mn 52s
Bit rate mode : Variable
Bit rate : 40.0 Mbps
Width : 1 920 pixels
Height : 1 080 pixels
Display aspect ratio : 16:9
Frame rate : 23.976 fps
Color space : YUV
Chroma subsampling : 4:2:0
Bit depth : 8 bits
Scan type : Progressive
Bits/(Pixel*Frame) : 0.804
Stream size : 6.65 GiB (92%)
Color primaries : BT.709
Transfer characteristics : BT.709
Matrix coefficients : BT.709
Color range : Limited

Audio
ID : 4352 (0x1100)
Menu ID : 1 (0x1)
Format : PCM
Format settings, Endianness : Big
Format settings, Sign : Signed
Muxing mode : Blu-ray
Codec ID : 128
Duration : 23mn 52s
Bit rate mode : Constant
Bit rate : 1 536 Kbps
Channel(s) : 2 channels
Channel positions : Front: L R
Sampling rate : 48.0 KHz
Bit depth : 16 bits
Stream size : 262 MiB (4%)


Screenshots

Shinmai Maou no Testament Burst (2016)

Shinmai Maou no Testament Burst (2016)

Shinmai Maou no Testament Burst (2016)


My publications | Rss Channel