Mangaka-san to Assistant-san to The Animation (2014)

Posted By: Lebedev30
Mangaka-san to Assistant-san to The Animation (2014)

Mangaka-san to Assistant-san to The Animation (2014)
BD-Remux | m2ts | 1920x1080 | H264@~35 Mbps | 12x ~ 13mn + 6x ~ 10mn | 12x ~2.6 Gb + 6x ~ 1.9 Gb
Japanese PCM@2304 Kbps | 2 channels | Subtitles: none
Genre: comedy, ecchi, seinen


Description:
The working life of the talented, kind, yet slightly perverted mangaka, Aito Yuuki, and his attractive level-headed assistant, Ashisu Sahoto is far from easy. Constantly pressured by his editor Otosuna Mihari to meet the deadlines for his HajiCafe manga, and lacking experience with girls, Aito asks Ashisu to act as a reference. And when the new assistant Fuwa Rinna arrives, it turns out she is a huge fan of Aito's work, but she cannot draw manga… which does not really help. Super assistant Kuroi Sena on the other hand is a very competent manga artist, but a weak tsundere with a sadistic side, as Aito finds out.

Come what may, finishing the next edition of the manga always comes first…


01. Perfecting Breasts! / Dream Job / Panty Wars / Otosuna Mihari`s Day Off
02. A New Assistant Arrives / That`s Important / First Time Together
03. Porno Mag Panic / Can I Take Care of Her? / Dark Comet Appears!
04. S & M / Mascot Character / Branya Appears! / Seventeen Mihari
05. Park Shock / Someday / Using Close Friends for Reference
06. Let`s Go to a Hot Spring
07. Little Sister Attacks! / A Night Together / Piggybacking the Super Assistant
08. Chief Editor`s Check / In the Mind of a Girl / Going Too Far
09. Mistakes of the Past
10. Sena-chan`s Crisis / I`ll Cheer You On! / Rain Talk
11. Dreaded Change / Do Your Best, Sena-chan / Know Yourself
12. Progress / End of Summer / Panty Personality Test
S1. Mini OVA: Ashisu-san`s Day Off / We Won`t Know Unless We Try
S2. Mini OVA: Mangaka`s Dream
S3. Mini OVA: Studying on a Date
S4. Mini OVA: Protect the Cute
S5. Mini OVA: Sister VS Editor-in-Chief
S6. Mini OVA: Perfect Nap / Angry Assistant


General
Format : BDAV
Format/Info : Blu-ray Video
File size : 3.14 GiB
Duration : 13mn 10s
Overall bit rate mode : Variable
Overall bit rate : 34.2 Mbps
Maximum Overall bit rate : 48.0 Mbps

Video
ID : 4113 (0x1011)
Menu ID : 1 (0x1)
Format : AVC
Format/Info : Advanced Video Codec
Format profile : High@L4.1
Format settings, CABAC : Yes
Format settings, ReFrames : 4 frames
Codec ID : 27
Duration : 13mn 9s
Bit rate mode : Variable
Bit rate : 30.5 Mbps
Maximum bit rate : 35.0 Mbps
Width : 1 920 pixels
Height : 1 080 pixels
Display aspect ratio : 16:9
Frame rate : 23.976 fps
Standard : NTSC
Color space : YUV
Chroma subsampling : 4:2:0
Bit depth : 8 bits
Scan type : Progressive
Bits/(Pixel*Frame) : 0.614
Stream size : 2.81 GiB (89%)
Color primaries : BT.709
Transfer characteristics : BT.709
Matrix coefficients : BT.709
Color range : Limited

Audio
ID : 4352 (0x1100)
Menu ID : 1 (0x1)
Format : PCM
Format settings, Endianness : Big
Format settings, Sign : Signed
Muxing mode : Blu-ray
Codec ID : 128
Duration : 13mn 9s
Bit rate mode : Constant
Bit rate : 2 304 Kbps
Channel(s) : 2 channels
Channel positions : Front: L R
Sampling rate : 48.0 KHz
Bit depth : 24 bits
Stream size : 217 MiB (7%)


Screenshots

Mangaka-san to Assistant-san to The Animation (2014)

Mangaka-san to Assistant-san to The Animation (2014)

Mangaka-san to Assistant-san to The Animation (2014)


My publications | Rss Channel