Please register here if you want to download anything!

If domain in your address bar is different from the list below
PLEASE LEAVE THAT SITE IMMEDIATELY
❗IT'S A DANGEROUS FAKE❗



Spicy Magazines for Men! ;-)

1898 Our Last Men in the Philippines / 1898. Los últimos de Filipinas (2016)

Posted By: Without
1898 Our Last Men in the Philippines / 1898. Los últimos de Filipinas (2016)

1898 Our Last Men in the Philippines / 1898. Los últimos de Filipinas (2016)
BDRip | MKV | 720x302 | AVC@754 kb/s | Spanish AAC@147 kb/s | Subs: English | 2 channels | 2 h 9 min | 836 MB
BDRip 720p | MKV | 1280x536 | AVC@4533 kb/s | Spanish DTS@1509 kb/s
Subs: English | 6 channels | 2 h 9 min | 5.46 GB
BDRip 1080p | MKV | 1920x808 | AVC@9365 kb/s | Spanish DTS@1509 kb/s
Subs: English | 6 channels | 2 h 9 min | 9.83 GB
Genre: Drama, War

The Spanish troops in the Philippines Have to fight for their lives as they are forgot by the Spanish Empire

IMDB - 1 win & 16 nominations


General
Complete name : 1898.Our.Last.Men.in.the.Philippines.2016.LIMITED.BDRip.x264-BiPOLAR\1898.our.last.men.in.the.philippines.2016.limited.bdrip.x264-bipolar.mkv
Format : Matroska
Format version : Version 4 / Version 2
File size : 837 MiB
Duration : 2 h 9 min
Overall bit rate : 904 kb/s
Encoded date : UTC 2017-04-20 06:35:32
Writing application : mkvmerge v8.3.0 ('Over the Horizon') 64bit
Writing library : libebml v1.3.1 + libmatroska v1.4.2

Video
ID : 1
Format : AVC
Format/Info : Advanced Video Codec
Format profile : High@L3.1
Format settings, CABAC : Yes
Format settings, ReFrames : 5 frames
Codec ID : V_MPEG4/ISO/AVC
Duration : 2 h 9 min
Bit rate : 754 kb/s
Width : 720 pixels
Height : 302 pixels
Display aspect ratio : 2.40:1
Frame rate mode : Constant
Frame rate : 24.000 FPS
Color space : YUV
Chroma subsampling : 4:2:0
Bit depth : 8 bits
Scan type : Progressive
Bits/(Pixel*Frame) : 0.144
Stream size : 698 MiB (83%)
Writing library : x264 core 148 r2744 b97ae06
Encoding settings : cabac=1 / ref=5 / deblock=1:-1:-1 / analyse=0x3:0x113 / me=umh / subme=8 / psy=1 / psy_rd=1.00:0.15 / mixed_ref=1 / me_range=16 / chroma_me=1 / trellis=2 / 8x8dct=1 / cqm=0 / deadzone=21,11 / fast_pskip=1 / chroma_qp_offset=-3 / threads=9 / lookahead_threads=1 / sliced_threads=0 / nr=0 / decimate=1 / interlaced=0 / bluray_compat=0 / constrained_intra=0 / bframes=3 / b_pyramid=2 / b_adapt=1 / b_bias=0 / direct=3 / weightb=1 / open_gop=0 / weightp=2 / keyint=250 / keyint_min=24 / scenecut=40 / intra_refresh=0 / rc_lookahead=50 / rc=crf / mbtree=1 / crf=19.0 / qcomp=0.60 / qpmin=0 / qpmax=69 / qpstep=4 / ip_ratio=1.40 / aq=1:1.00
Language : English
Default : Yes
Forced : No
Color range : Limited
Matrix coefficients : BT.709

Audio
ID : 2
Format : AAC
Format/Info : Advanced Audio Codec
Format profile : LC
Codec ID : A_AAC
Duration : 2 h 9 min
Bit rate : 147 kb/s
Channel(s) : 2 channels
Channel positions : Front: L R
Sampling rate : 48.0 kHz
Frame rate : 46.875 FPS (1024 spf)
Compression mode : Lossy
Delay relative to video : 9 ms
Stream size : 136 MiB (16%)
Language : Spanish
Default : Yes
Forced : No

Text
ID : 3
Format : UTF-8
Codec ID : S_TEXT/UTF8
Codec ID/Info : UTF-8 Plain Text
Duration : 2 h 8 min
Bit rate : 36 b/s
Count of elements : 1148
Stream size : 34.9 KiB (0%)
Title : forced
Language : English
Default : Yes
Forced : Yes

Menu
00:00:00.000 : en:00:00:00.000
00:09:30.500 : en:00:09:30.500
00:22:02.875 : en:00:22:02.875
00:31:16.958 : en:00:31:16.958
00:43:26.042 : en:00:43:26.042
00:53:34.208 : en:00:53:34.208
01:04:45.000 : en:01:04:45.000
01:16:05.542 : en:01:16:05.542
01:25:20.375 : en:01:25:20.375
01:36:32.667 : en:01:36:32.667
01:47:22.125 : en:01:47:22.125
01:56:57.583 : en:01:56:57.583

General
Complete name : 1898.Our.Last.Men.in.the.Philippines.2016.LIMITED.720p.BluRay.x264-BiPOLAR\1898.our.last.men.in.the.philippines.2016.limited.720p.bluray.x264-bipolar.mkv
Format : Matroska
Format version : Version 4 / Version 2
File size : 5.47 GiB
Duration : 2 h 9 min
Overall bit rate : 6 043 kb/s
Encoded date : UTC 2017-04-20 21:53:05
Writing application : mkvmerge v8.3.0 ('Over the Horizon') 64bit
Writing library : libebml v1.3.1 + libmatroska v1.4.2

Video
ID : 1
Format : AVC
Format/Info : Advanced Video Codec
Format profile : High@L4.1
Format settings, CABAC : Yes
Format settings, ReFrames : 5 frames
Codec ID : V_MPEG4/ISO/AVC
Duration : 2 h 9 min
Bit rate : 4 533 kb/s
Width : 1 280 pixels
Height : 536 pixels
Display aspect ratio : 2.40:1
Frame rate mode : Constant
Frame rate : 24.000 FPS
Color space : YUV
Chroma subsampling : 4:2:0
Bit depth : 8 bits
Scan type : Progressive
Bits/(Pixel*Frame) : 0.275
Stream size : 4.10 GiB (75%)
Writing library : x264 core 148 r2744 b97ae06
Encoding settings : cabac=1 / ref=5 / deblock=1:0:0 / analyse=0x3:0x133 / me=umh / subme=9 / psy=1 / psy_rd=1.00:0.00 / mixed_ref=1 / me_range=16 / chroma_me=1 / trellis=2 / 8x8dct=1 / cqm=0 / deadzone=21,11 / fast_pskip=0 / chroma_qp_offset=-2 / threads=17 / lookahead_threads=1 / sliced_threads=0 / nr=0 / decimate=1 / interlaced=0 / bluray_compat=0 / constrained_intra=0 / bframes=3 / b_pyramid=2 / b_adapt=1 / b_bias=0 / direct=3 / weightb=1 / open_gop=0 / weightp=2 / keyint=250 / keyint_min=24 / scenecut=40 / intra_refresh=0 / rc_lookahead=50 / rc=2pass / mbtree=1 / bitrate=4533 / ratetol=1.0 / qcomp=0.60 / qpmin=0 / qpmax=69 / qpstep=4 / cplxblur=20.0 / qblur=0.5 / ip_ratio=1.40 / aq=1:1.00
Language : English
Default : Yes
Forced : No

Audio
ID : 2
Format : DTS
Format/Info : Digital Theater Systems
Mode : 16
Format settings, Endianness : Big
Codec ID : A_DTS
Duration : 2 h 9 min
Bit rate mode : Constant
Bit rate : 1 509 kb/s
Channel(s) : 6 channels
Channel positions : Front: L C R, Side: L R, LFE
Sampling rate : 48.0 kHz
Frame rate : 93.750 FPS (512 spf)
Bit depth : 24 bits
Compression mode : Lossy
Stream size : 1.36 GiB (25%)
Language : Spanish
Default : Yes
Forced : No

Text
ID : 3
Format : UTF-8
Codec ID : S_TEXT/UTF8
Codec ID/Info : UTF-8 Plain Text
Duration : 2 h 8 min
Bit rate : 36 b/s
Count of elements : 1148
Stream size : 34.9 KiB (0%)
Title : forced
Language : English
Default : Yes
Forced : Yes

Menu
00:00:00.000 : en:00:00:00.000
00:09:30.500 : en:00:09:30.500
00:22:02.875 : en:00:22:02.875
00:31:16.958 : en:00:31:16.958
00:43:26.042 : en:00:43:26.042
00:53:34.208 : en:00:53:34.208
01:04:45.000 : en:01:04:45.000
01:16:05.542 : en:01:16:05.542
01:25:20.375 : en:01:25:20.375
01:36:32.667 : en:01:36:32.667
01:47:22.125 : en:01:47:22.125
01:56:57.583 : en:01:56:57.583

General
Complete name : 1898.Our.Last.Men.in.the.Philippines.2016.LIMITED.1080p.BluRay.x264-BiPOLAR\1898.our.last.men.in.the.philippines.2016.limited.1080p.bluray.x264-bipolar.mkv
Format : Matroska
Format version : Version 4 / Version 2
File size : 9.83 GiB
Duration : 2 h 9 min
Overall bit rate : 10.9 Mb/s
Encoded date : UTC 2017-04-20 06:36:03
Writing application : mkvmerge v8.3.0 ('Over the Horizon') 64bit
Writing library : libebml v1.3.1 + libmatroska v1.4.2

Video
ID : 1
Format : AVC
Format/Info : Advanced Video Codec
Format profile : High@L4.1
Format settings, CABAC : Yes
Format settings, ReFrames : 5 frames
Codec ID : V_MPEG4/ISO/AVC
Duration : 2 h 9 min
Bit rate : 9 365 kb/s
Width : 1 920 pixels
Height : 808 pixels
Display aspect ratio : 2.40:1
Frame rate mode : Constant
Frame rate : 24.000 FPS
Color space : YUV
Chroma subsampling : 4:2:0
Bit depth : 8 bits
Scan type : Progressive
Bits/(Pixel*Frame) : 0.252
Stream size : 8.47 GiB (86%)
Writing library : x264 core 148 r2744 b97ae06
Encoding settings : cabac=1 / ref=5 / deblock=1:-3:-3 / analyse=0x3:0x133 / me=umh / subme=9 / psy=1 / psy_rd=1.00:0.00 / mixed_ref=1 / me_range=16 / chroma_me=1 / trellis=2 / 8x8dct=1 / cqm=0 / deadzone=21,11 / fast_pskip=0 / chroma_qp_offset=-2 / threads=25 / lookahead_threads=2 / sliced_threads=0 / nr=0 / decimate=1 / interlaced=0 / bluray_compat=0 / constrained_intra=0 / bframes=3 / b_pyramid=2 / b_adapt=1 / b_bias=0 / direct=3 / weightb=1 / open_gop=0 / weightp=2 / keyint=250 / keyint_min=24 / scenecut=40 / intra_refresh=0 / rc_lookahead=50 / rc=2pass / mbtree=1 / bitrate=9365 / ratetol=1.0 / qcomp=0.60 / qpmin=0 / qpmax=69 / qpstep=4 / cplxblur=20.0 / qblur=0.5 / ip_ratio=1.40 / aq=1:1.00
Language : English
Default : Yes
Forced : No

Audio
ID : 2
Format : DTS
Format/Info : Digital Theater Systems
Mode : 16
Format settings, Endianness : Big
Codec ID : A_DTS
Duration : 2 h 9 min
Bit rate mode : Constant
Bit rate : 1 509 kb/s
Channel(s) : 6 channels
Channel positions : Front: L C R, Side: L R, LFE
Sampling rate : 48.0 kHz
Frame rate : 93.750 FPS (512 spf)
Bit depth : 24 bits
Compression mode : Lossy
Stream size : 1.36 GiB (14%)
Language : Spanish
Default : Yes
Forced : No

Text
ID : 3
Format : UTF-8
Codec ID : S_TEXT/UTF8
Codec ID/Info : UTF-8 Plain Text
Duration : 2 h 8 min
Bit rate : 36 b/s
Count of elements : 1148
Stream size : 34.9 KiB (0%)
Title : forced
Language : English
Default : Yes
Forced : Yes

Menu
00:00:00.000 : en:00:00:00.000
00:09:30.500 : en:00:09:30.500
00:22:02.875 : en:00:22:02.875
00:31:16.958 : en:00:31:16.958
00:43:26.042 : en:00:43:26.042
00:53:34.208 : en:00:53:34.208
01:04:45.000 : en:01:04:45.000
01:16:05.542 : en:01:16:05.542
01:25:20.375 : en:01:25:20.375
01:36:32.667 : en:01:36:32.667
01:47:22.125 : en:01:47:22.125
01:56:57.583 : en:01:56:57.583


BDRip Screenshots

1898 Our Last Men in the Philippines / 1898. Los últimos de Filipinas (2016)

1898 Our Last Men in the Philippines / 1898. Los últimos de Filipinas (2016)

1898 Our Last Men in the Philippines / 1898. Los últimos de Filipinas (2016)


BDRip 720p Screenshots

1898 Our Last Men in the Philippines / 1898. Los últimos de Filipinas (2016)

1898 Our Last Men in the Philippines / 1898. Los últimos de Filipinas (2016)

1898 Our Last Men in the Philippines / 1898. Los últimos de Filipinas (2016)


BDRip 1080p Screenshots

1898 Our Last Men in the Philippines / 1898. Los últimos de Filipinas (2016)

1898 Our Last Men in the Philippines / 1898. Los últimos de Filipinas (2016)

1898 Our Last Men in the Philippines / 1898. Los últimos de Filipinas (2016)


Come Visit My Blog (•‿•)