Tenchi Muyou! Ryououki (2003-2005) [7 DVD]

Posted By: Lebedev30
SD / DVD
Tenchi Muyou! Ryououki (2003-2005) [7 DVD]

Tenchi Muyou! Ryououki (2003-2005) [7 DVD]
DVD5 | ISO | NTSC 4:3 | 17.4 Gb
Audio: Japanese AC-3 48000 @ 448 Kbps 6 channels, Japanese AC-3 48000 @ 384 Kbps 2 channels
Subtitles: none
Genre: action, comedy, ecchi, fantasy, science fiction


Description:
The mysterious Lady Tokimi dispatches the warrior Z to Earth in order to learn more about Tenchi and his connection to Washuu and Tsunami. Z is ordered not to lay a hand on Tenchi, but he may have his own agenda since he quickly sets about making trouble for our hero.

Meanwhile, Tenchi's father Nobuyuki and grandfather Katsuhito come to the decision that it may be time for Tenchi to learn even more about his past and his Jurian heritage. And the arrival of a couple of new female residents to the Masaki household threatens to upset the balance and inflame the rivalry over Tenchi's already decidedly divided affection.

Contents:
OVA, 6 episodes
Year: 18.09.2003 till 16.03.2005




Special features -> See the menu's screenshot


Tenchi Muyou! Ryououki (2003-2005) [7 DVD]


Tenchi Muyou! Ryououki 01 DVD
DVD5 | ISO | NTSC 4:3 | 3.4 Gb
Audio: Japanese AC-3 48000 @ 448 Kbps 6 channels, Japanese AC-3 48000 @ 384 Kbps 2 channels



Video
ID : 224 (0xE0)
Format : MPEG Video
Format version : Version 2
Format profile : Main@Main
Format settings : CustomMatrix / BVOP
Format settings, BVOP : Yes
Format settings, Matrix : Custom
Format settings, GOP : Variable
Format settings, picture structure : Frame
Duration : 12 min 37 s
Bit rate mode : Variable
Bit rate : 8 190 kb/s
Maximum bit rate : 9 800 kb/s
Width : 720 pixels
Height : 480 pixels
Display aspect ratio : 4:3
Frame rate : 29.970 (30000/1001) FPS
Standard : NTSC
Color space : YUV
Chroma subsampling : 4:2:0
Bit depth : 8 bits
Scan type : Interlaced
Scan order : Top Field First
Compression mode : Lossy
Bits/(Pixel*Frame) : 0.791
Time code of first frame : 01:31:39:03
Time code source : Group of pictures header
GOP, Open/Closed : Open
Stream size : 740 MiB (89%)

Audio #1
ID : 189 (0xBD)-128 (0x80)
Format : AC-3
Format/Info : Audio Coding 3
Muxing mode : DVD-Video
Duration : 12 min 37 s
Bit rate mode : Constant
Bit rate : 448 kb/s
Channel(s) : 6 channels
Channel positions : Front: L C R, Side: L R, LFE
Sampling rate : 48.0 kHz
Frame rate : 31.250 FPS (1536 SPF)
Bit depth : 16 bits
Compression mode : Lossy
Delay relative to video : -209 ms
Stream size : 40.5 MiB (5%)
Service kind : Complete Main

Audio #2
ID : 189 (0xBD)-129 (0x81)
Format : AC-3
Format/Info : Audio Coding 3
Muxing mode : DVD-Video
Duration : 12 min 37 s
Bit rate mode : Constant
Bit rate : 384 kb/s
Channel(s) : 2 channels
Channel positions : Front: L R
Sampling rate : 48.0 kHz
Frame rate : 31.250 FPS (1536 SPF)
Bit depth : 16 bits
Compression mode : Lossy
Delay relative to video : -177 ms
Stream size : 34.7 MiB (4%)
Service kind : Complete Main


Tenchi Muyou! Ryououki (2003-2005) [7 DVD]


Tenchi Muyou! Ryououki 02 DVD
DVD5 | ISO | NTSC 4:3 | 2.1 Gb
Audio: Japanese AC-3 48000 @ 448 Kbps 6 channels, Japanese AC-3 48000 @ 384 Kbps 2 channels



Video
ID : 224 (0xE0)
Format : MPEG Video
Format version : Version 2
Format profile : Main@Main
Format settings : CustomMatrix / BVOP
Format settings, BVOP : Yes
Format settings, Matrix : Custom
Format settings, GOP : Variable
Format settings, picture structure : Frame
Duration : 16 min 11 s
Bit rate mode : Variable
Bit rate : 7 837 kb/s
Maximum bit rate : 9 800 kb/s
Width : 720 pixels
Height : 480 pixels
Display aspect ratio : 4:3
Frame rate : 29.970 (30000/1001) FPS
Standard : NTSC
Color space : YUV
Chroma subsampling : 4:2:0
Bit depth : 8 bits
Scan type : Interlaced
Scan order : Top Field First
Compression mode : Lossy
Bits/(Pixel*Frame) : 0.757
Time code of first frame : 00:59:59:00
Time code source : Group of pictures header
Stream size : 907 MiB (89%)

Audio #1
ID : 189 (0xBD)-128 (0x80)
Format : AC-3
Format/Info : Audio Coding 3
Muxing mode : DVD-Video
Duration : 16 min 10 s
Bit rate mode : Constant
Bit rate : 448 kb/s
Channel(s) : 6 channels
Channel positions : Front: L C R, Side: L R, LFE
Sampling rate : 48.0 kHz
Frame rate : 31.250 FPS (1536 SPF)
Bit depth : 16 bits
Compression mode : Lossy
Stream size : 51.8 MiB (5%)
Service kind : Complete Main

Audio #2
ID : 189 (0xBD)-129 (0x81)
Format : AC-3
Format/Info : Audio Coding 3
Muxing mode : DVD-Video
Duration : 16 min 10 s
Bit rate mode : Constant
Bit rate : 384 kb/s
Channel(s) : 2 channels
Channel positions : Front: L R
Sampling rate : 48.0 kHz
Frame rate : 31.250 FPS (1536 SPF)
Bit depth : 16 bits
Compression mode : Lossy
Stream size : 44.4 MiB (4%)
Service kind : Complete Main


Tenchi Muyou! Ryououki (2003-2005) [7 DVD]


Tenchi Muyou! Ryououki 03 DVD
DVD5 | ISO | NTSC 4:3 | 2 Gb
Audio: Japanese AC-3 48000 @ 448 Kbps 6 channels, Japanese AC-3 48000 @ 384 Kbps 2 channels



Video
ID : 224 (0xE0)
Format : MPEG Video
Format version : Version 2
Format profile : Main@Main
Format settings : CustomMatrix / BVOP
Format settings, BVOP : Yes
Format settings, Matrix : Custom
Format settings, GOP : Variable
Format settings, picture structure : Frame
Duration : 15 min 22 s
Bit rate mode : Variable
Bit rate : 8 285 kb/s
Maximum bit rate : 9 800 kb/s
Width : 720 pixels
Height : 480 pixels
Display aspect ratio : 4:3
Frame rate : 29.970 (30000/1001) FPS
Standard : NTSC
Color space : YUV
Chroma subsampling : 4:2:0
Bit depth : 8 bits
Scan type : Interlaced
Scan order : Top Field First
Compression mode : Lossy
Bits/(Pixel*Frame) : 0.800
Time code of first frame : 00:59:59:00
Time code source : Group of pictures header
Stream size : 912 MiB (89%)

Audio #1
ID : 189 (0xBD)-128 (0x80)
Format : AC-3
Format/Info : Audio Coding 3
Muxing mode : DVD-Video
Duration : 15 min 22 s
Bit rate mode : Constant
Bit rate : 448 kb/s
Channel(s) : 6 channels
Channel positions : Front: L C R, Side: L R, LFE
Sampling rate : 48.0 kHz
Frame rate : 31.250 FPS (1536 SPF)
Bit depth : 16 bits
Compression mode : Lossy
Stream size : 49.3 MiB (5%)
Service kind : Complete Main

Audio #2
ID : 189 (0xBD)-129 (0x81)
Format : AC-3
Format/Info : Audio Coding 3
Muxing mode : DVD-Video
Duration : 15 min 22 s
Bit rate mode : Constant
Bit rate : 384 kb/s
Channel(s) : 2 channels
Channel positions : Front: L R
Sampling rate : 48.0 kHz
Frame rate : 31.250 FPS (1536 SPF)
Bit depth : 16 bits
Compression mode : Lossy
Stream size : 42.2 MiB (4%)
Service kind : Complete Main


Tenchi Muyou! Ryououki (2003-2005) [7 DVD]


Tenchi Muyou! Ryououki 04 DVD
DVD5 | ISO | NTSC 4:3 | 2.2 Gb
Audio: Japanese AC-3 48000 @ 448 Kbps 6 channels, Japanese AC-3 48000 @ 384 Kbps 2 channels



Video
ID : 224 (0xE0)
Format : MPEG Video
Format version : Version 2
Format profile : Main@Main
Format settings : CustomMatrix / BVOP
Format settings, BVOP : Yes
Format settings, Matrix : Custom
Format settings, GOP : Variable
Format settings, picture structure : Frame
Duration : 17 min 38 s
Bit rate mode : Variable
Bit rate : 7 124 kb/s
Maximum bit rate : 9 800 kb/s
Width : 720 pixels
Height : 480 pixels
Display aspect ratio : 4:3
Frame rate : 29.970 (30000/1001) FPS
Standard : NTSC
Color space : YUV
Chroma subsampling : 4:2:0
Bit depth : 8 bits
Scan type : Interlaced
Scan order : Top Field First
Compression mode : Lossy
Bits/(Pixel*Frame) : 0.688
Time code of first frame : 00:59:59:00
Time code source : Group of pictures header
GOP, Open/Closed : Open
GOP, Open/Closed of first frame : Closed
Stream size : 899 MiB (88%)

Audio #1
ID : 189 (0xBD)-128 (0x80)
Format : AC-3
Format/Info : Audio Coding 3
Muxing mode : DVD-Video
Duration : 17 min 37 s
Bit rate mode : Constant
Bit rate : 448 kb/s
Channel(s) : 6 channels
Channel positions : Front: L C R, Side: L R, LFE
Sampling rate : 48.0 kHz
Frame rate : 31.250 FPS (1536 SPF)
Bit depth : 16 bits
Compression mode : Lossy
Stream size : 56.5 MiB (6%)
Service kind : Complete Main

Audio #2
ID : 189 (0xBD)-129 (0x81)
Format : AC-3
Format/Info : Audio Coding 3
Muxing mode : DVD-Video
Duration : 17 min 37 s
Bit rate mode : Constant
Bit rate : 384 kb/s
Channel(s) : 2 channels
Channel positions : Front: L R
Sampling rate : 48.0 kHz
Frame rate : 31.250 FPS (1536 SPF)
Bit depth : 16 bits
Compression mode : Lossy
Stream size : 48.4 MiB (5%)
Service kind : Complete Main


Tenchi Muyou! Ryououki (2003-2005) [7 DVD]


Tenchi Muyou! Ryououki 05 DVD
DVD5 | ISO | NTSC 4:3 | 2.6 Gb
Audio: Japanese AC-3 48000 @ 448 Kbps 6 channels, Japanese AC-3 48000 @ 384 Kbps 2 channels



Video
ID : 224 (0xE0)
Format : MPEG Video
Format version : Version 2
Format profile : Main@Main
Format settings : CustomMatrix / BVOP
Format settings, BVOP : Yes
Format settings, Matrix : Custom
Format settings, GOP : Variable
Format settings, picture structure : Frame
Duration : 16 min 55 s
Bit rate mode : Variable
Bit rate : 7 455 kb/s
Maximum bit rate : 9 800 kb/s
Width : 720 pixels
Height : 480 pixels
Display aspect ratio : 4:3
Frame rate : 29.970 (30000/1001) FPS
Standard : NTSC
Color space : YUV
Chroma subsampling : 4:2:0
Bit depth : 8 bits
Scan type : Interlaced
Scan order : Top Field First
Compression mode : Lossy
Bits/(Pixel*Frame) : 0.720
Time code of first frame : 01:00:00:00
Time code source : Group of pictures header
GOP, Open/Closed : Open
GOP, Open/Closed of first frame : Closed
Stream size : 903 MiB (88%)

Audio #1
ID : 189 (0xBD)-128 (0x80)
Format : AC-3
Format/Info : Audio Coding 3
Muxing mode : DVD-Video
Duration : 16 min 55 s
Bit rate mode : Constant
Bit rate : 448 kb/s
Channel(s) : 6 channels
Channel positions : Front: L C R, Side: L R, LFE
Sampling rate : 48.0 kHz
Frame rate : 31.250 FPS (1536 SPF)
Bit depth : 16 bits
Compression mode : Lossy
Stream size : 54.2 MiB (5%)
Service kind : Complete Main

Audio #2
ID : 189 (0xBD)-129 (0x81)
Format : AC-3
Format/Info : Audio Coding 3
Muxing mode : DVD-Video
Duration : 16 min 55 s
Bit rate mode : Constant
Bit rate : 384 kb/s
Channel(s) : 2 channels
Channel positions : Front: L R
Sampling rate : 48.0 kHz
Frame rate : 31.250 FPS (1536 SPF)
Bit depth : 16 bits
Compression mode : Lossy
Stream size : 46.5 MiB (5%)
Service kind : Complete Main


Tenchi Muyou! Ryououki (2003-2005) [7 DVD]


Tenchi Muyou! Ryououki 06 DVD
DVD5 | ISO | NTSC 4:3 | 2.7 Gb
Audio: Japanese AC-3 48000 @ 448 Kbps 6 channels, Japanese AC-3 48000 @ 384 Kbps 2 channels



Video
ID : 224 (0xE0)
Format : MPEG Video
Format version : Version 2
Format profile : Main@Main
Format settings : CustomMatrix / BVOP
Format settings, BVOP : Yes
Format settings, Matrix : Custom
Format settings, GOP : Variable
Format settings, picture structure : Frame
Duration : 15 min 17 s
Bit rate mode : Variable
Bit rate : 8 343 kb/s
Maximum bit rate : 9 800 kb/s
Width : 720 pixels
Height : 480 pixels
Display aspect ratio : 4:3
Frame rate : 29.970 (30000/1001) FPS
Standard : NTSC
Color space : YUV
Chroma subsampling : 4:2:0
Bit depth : 8 bits
Scan type : Interlaced
Scan order : Top Field First
Compression mode : Lossy
Bits/(Pixel*Frame) : 0.806
Time code of first frame : 00:59:59:00
Time code source : Group of pictures header
Stream size : 912 MiB (89%)

Audio #1
ID : 189 (0xBD)-128 (0x80)
Format : AC-3
Format/Info : Audio Coding 3
Muxing mode : DVD-Video
Duration : 15 min 17 s
Bit rate mode : Constant
Bit rate : 448 kb/s
Channel(s) : 6 channels
Channel positions : Front: L C R, Side: L R, LFE
Sampling rate : 48.0 kHz
Frame rate : 31.250 FPS (1536 SPF)
Bit depth : 16 bits
Compression mode : Lossy
Stream size : 49.0 MiB (5%)
Service kind : Complete Main

Audio #2
ID : 189 (0xBD)-129 (0x81)
Format : AC-3
Format/Info : Audio Coding 3
Muxing mode : DVD-Video
Duration : 15 min 17 s
Bit rate mode : Constant
Bit rate : 384 kb/s
Channel(s) : 2 channels
Channel positions : Front: L R
Sampling rate : 48.0 kHz
Frame rate : 31.250 FPS (1536 SPF)
Bit depth : 16 bits
Compression mode : Lossy
Stream size : 42.0 MiB (4%)
Service kind : Complete Main


Tenchi Muyou! Ryououki (2003-2005) [7 DVD]


Tenchi Muyou! Ryououki 07 DVD
DVD5 | ISO | NTSC 4:3 | 2 Gb
Audio: Japanese AC-3 48000 @ 448 Kbps 6 channels, Japanese AC-3 48000 @ 384 Kbps 2 channels



Video
ID : 224 (0xE0)
Format : MPEG Video
Format version : Version 2
Format profile : Main@Main
Format settings : CustomMatrix / BVOP
Format settings, BVOP : Yes
Format settings, Matrix : Custom
Format settings, GOP : Variable
Format settings, picture structure : Frame
Duration : 15 min 40 s
Bit rate mode : Variable
Bit rate : 8 113 kb/s
Maximum bit rate : 9 800 kb/s
Width : 720 pixels
Height : 480 pixels
Display aspect ratio : 4:3
Frame rate : 29.970 (30000/1001) FPS
Standard : NTSC
Color space : YUV
Chroma subsampling : 4:2:0
Bit depth : 8 bits
Scan type : Interlaced
Scan order : Top Field First
Compression mode : Lossy
Bits/(Pixel*Frame) : 0.783
Time code of first frame : 00:59:59:00
Time code source : Group of pictures header
Stream size : 910 MiB (89%)

Audio #1
ID : 189 (0xBD)-128 (0x80)
Format : AC-3
Format/Info : Audio Coding 3
Muxing mode : DVD-Video
Duration : 15 min 40 s
Bit rate mode : Constant
Bit rate : 448 kb/s
Channel(s) : 6 channels
Channel positions : Front: L C R, Side: L R, LFE
Sampling rate : 48.0 kHz
Frame rate : 31.250 FPS (1536 SPF)
Bit depth : 16 bits
Compression mode : Lossy
Stream size : 50.2 MiB (5%)
Service kind : Complete Main

Audio #2
ID : 189 (0xBD)-129 (0x81)
Format : AC-3
Format/Info : Audio Coding 3
Muxing mode : DVD-Video
Duration : 15 min 40 s
Bit rate mode : Constant
Bit rate : 384 kb/s
Channel(s) : 2 channels
Channel positions : Front: L R
Sampling rate : 48.0 kHz
Frame rate : 31.250 FPS (1536 SPF)
Bit depth : 16 bits
Compression mode : Lossy
Stream size : 43.0 MiB (4%)
Service kind : Complete Main


Screenshots

Tenchi Muyou! Ryououki (2003-2005) [7 DVD]

Tenchi Muyou! Ryououki (2003-2005) [7 DVD]

Tenchi Muyou! Ryououki (2003-2005) [7 DVD]