The Brave Tin Soldier (1934)

Posted By: Tavaz
SD / DVDRip IMDb
The Brave Tin Soldier (1934)

The Brave Tin Soldier (1934)
DVDRip | AVI | 576x432 | MP4V-ES @ 2946 kbps | AC-3 @ 192 kbps | 32 x 6 min | 32 x 67 MiB
Genre: Animation, Short

A musical rendition of the Hans Christian Anderson Fairy Tale where a brave tin soldier with only one leg and a toy ballerina find happiness.

16.Comi.Color.-.Tom.Thumb.1936.DVDRip.XviD.AC3-BgFr.avi (63.3 MB)
10.Comi.Color.-.Summertime.1935.DVDRip.XviD.AC3-BgFr.avi (82.8 MB)
The.Cartoons.That.Time.Forgot.The.Ub.Iwerks.Collection.Volume.1.DVDRip.XviD.AC3-BgFr.NFO (2.7 KB)
29.Comi.color.-.Simple.Simon.1935.DVDRip.XviD.AC3-BgFr.avi (66.5 MB)
20.Comi.Color.-.Ali.Baba.1936.DVDRip.XviD.AC3-BgFr.avi (70.5 MB)
18.Comi.Color.-.Sinbad.the.Sailor.1935.DVDRip.XviD.AC3-BgFr.avi (74.7 MB)
19.Willie.Whopper.-.Rasslin'.Round.1934.DVDRip.XviD.AC3-BgFr.avi (54.2 MB)
25.Comi.Color.-.The.Brave.Tin.Soldier.1934.DVDRip.XviD.AC3-BgFr.avi (68.2 MB)
04.Flip.the.Frog.-.The.Village.Smithy.1931.DVDRip.XviD.AC3-BgFr.avi (57.1 MB)
23.Comi.Color.-.Aladdin.and.the.Wonderful.Lamp.1934.DVDRip.XviD.AC3-BgFr.avi (97.3 MB)
12.Flip.the.Frog.-.Puddle.Pranks.1930.DVDRip.XviD.AC3-BgFr.avi (82.3 MB)
07.Comi.Color.-.Old.Mother.Hubbard.1935.DVDRip.XviD.AC3-BgFr.avi (75.8 MB)
09.Comi.Color.-.The.Brementown.Musicians.1935.DVDRip.XviD.AC3-BgFr.avi (77.4 MB)
17.Willie.Whopper.-.Insultin'.the.Sultan.1934.DVDRip.XviD.AC3-BgFr.avi (53.1 MB)
15.Willie.Whopper.-.Spite.Flight.(The.Air.Race).1933.DVDRip.XviD.AC3-BgFr.avi (47.0 MB)
11.Flip.the.Frog.-.The.Music.Lesson.1932.DVDRip.XviD.AC3-BgFr.avi (69.4 MB)
21.Willie.Whopper.-.Viva.Willie.1934.DVDRip.XviD.AC3-BgFr.avi (69.3 MB)
24.Comi.Color.-.Jack.and.the.Beanstalk.1933.DVDRip.XviD.AC3-BgFr.avi (75.9 MB)
14.Comi.Color.-.Happy.Days.1936.DVDRip.XviD.AC3-BgFr.avi (81.0 MB)
28.Comi.Color.-.The.Queen.of.Hearts.1934.DVDRip.XviD.AC3-BgFr.avi (84.9 MB)
13.Willie.Whopper.-.The.Good.Scout.1934.DVDRip.XviD.AC3-BgFr.avi (58.1 MB)
30.Comi.Color.-.The.Valiant.Tailor.1934.DVDRip.XviD.AC3-BgFr.avi (99.1 MB)
03.Comi.Color.-.The.Little.Red.Hen.1934.DVDRip.XviD.AC3-BgFr.avi (71.7 MB)
05.Comi.Color.-.Mary's.Little.Lamb.1935.DVDRip.XviD.AC3-BgFr.avi (55.3 MB)
31.Comi.Color.-.The.Three.Bears.1935.DVDRip.XviD.AC3-BgFr.avi (94.3 MB)
26.Comi.Color.-.Puss.in.Boots.1934.DVDRip.XviD.AC3-BgFr.avi (64.9 MB)
08.Comi.Color.-.Humpty.Dumpty.1935.DVDRip.XviD.AC3-BgFr.avi (55.4 MB)
22.Comi.Color.-.Don.Quixote.1934.DVDRip.XviD.AC3-BgFr.avi (86.5 MB)
06.Flip.the.Frog.-.The.Village.Barber.1930.DVDRip.XviD.AC3-BgFr.avi (152.9 MB)
02.Flip.the.Frog.-.The.Soup.Song.1931.DVDRip.XviD.AC3-BgFr.avi (55.3 MB)
01.Flip.the.Frog.-.Fiddlesticks.1930.DVDRip.XviD.AC3-BgFr.avi (91.1 MB)
27.Comi.Color.-.Little.Boy.Blue.1936.DVDRip.XviD.AC3-BgFr.avi (50.3 MB)
32.Comi.Color.-.Dick.Whittington's.Cat.1936.DVDRip.XviD.AC3-BgFr.avi (71.5 MB)



General
Complete name : ./06.Flip.the.Frog.-.The.Village.Barber.1930.DVDRip.XviD.AC3-BgFr.avi
Format : AVI
Format/Info : Audio Video Interleave
File size : 153 MiB
Duration : 6 min 47 s
Overall bit rate : 3 151 kb/s
Writing application : VirtualDubMod 1.5.10.1 (build 2366/release)
Writing library : VirtualDubMod build 2366/release

Video
ID : 0
Format : MPEG-4 Visual
Format profile : Simple@L3
Format settings, BVOP : No
Format settings, QPel : No
Format settings, GMC : No warppoints
Format settings, Matrix : Default (H.263)
Codec ID : XVID
Codec ID/Hint : XviD
Duration : 6 min 47 s
Bit rate : 2 947 kb/s
Width : 576 pixels
Height : 432 pixels
Display aspect ratio : 4:3
Frame rate : 29.970 (30000/1001) FPS
Color space : YUV
Chroma subsampling : 4:2:0
Bit depth : 8 bits
Scan type : Progressive
Compression mode : Lossy
Bits/(Pixel*Frame) : 0.395
Stream size : 143 MiB (94%)
Writing library : XviD 1.1.2 (UTC 2006-11-01)

Audio
ID : 1
Format : AC-3
Format/Info : Audio Coding 3
Format settings, Endianness : Big
Codec ID : 2000
Duration : 6 min 47 s
Bit rate mode : Constant
Bit rate : 192 kb/s
Channel(s) : 1 channel
Channel positions : Front: C
Sampling rate : 48.0 kHz
Frame rate : 31.250 FPS (1536 SPF)
Bit depth : 16 bits
Compression mode : Lossy
Delay relative to video : 14 ms
Stream size : 9.32 MiB (6%)
Alignment : Split accross interleaves
Interleave, duration : 33 ms (1.00 video frame)
Interleave, preload duration : 500 ms
Service kind : Complete Main





The Brave Tin Soldier (1934)


The Brave Tin Soldier (1934)


The Brave Tin Soldier (1934)


The Brave Tin Soldier (1934)


The Brave Tin Soldier (1934)