Isekai Maou to Shoukan Shoujo no Dorei Majutsu (2018)

Posted By: Lebedev30
1080p (FullHD) / BluRay Remux
Isekai Maou to Shoukan Shoujo no Dorei Majutsu (2018)

Isekai Maou to Shoukan Shoujo no Dorei Majutsu (2018)
BD-Remux | mkv | 1920x1080 | H264@~38 Mbps | 12x ~ 24mn | 12x ~6.6 Gb
日本語 FLAC@1442 Kbps | 2 channels | Subtitles: None
Genre: action, adventure, comedy, demon, ecchi, elf, fantasy, harem, magic, romance, virtual world


Description:
* Based on a light novel series written by Murasaki Yukiya and illustrated by Tsurusaki Takahiro.

In the MMORPG Cross Reverie, Sakamoto Takuma is so powerful that he is lauded as the "Demon Lord" by other players. One day, he is summoned to a world outside his own - but with the same appearance (Diablo) he had in the game! There, he meets two girls, Rem Galleu and Shela L Greenwood, who both proclaim themselves to be his Summoner. They perform an Enslavement Ritual to turn him into their Summon… but that's when Takuma's passive ability <<Magic Reflection>> activates! Instead, it is the girls who become enslaved! Though Takuma may be the strongest Sorcerer there is, he has no idea how to talk with other people. It is here he makes his choice: to act based on his persona from the game! "Amazing? But of course… I am Diablo, the being known and feared as the Demon Lord!" So begins a tale of adventure with an earth-shakingly powerful Demon Lord (or at least someone who acts like one) taking on another world!




01. The Demon Lord Act
02. Strongest Newcomer
03. Fallen Assault
04. Point-Blank War Dance
05. Imperial Knight
06. Slave Market
07. Change of Heart
08. Hero`s Charge
09. Holy Knight Tale
10. The Demon Lord`s Resurrection
11. The Young Girl Awakens
12. Battle for Legitimacy


General
Format : Matroska
Format version : Version 4 / Version 2
File size : 6.64 GiB
Duration : 23 min 42 s
Overall bit rate mode : Variable
Overall bit rate : 40.1 Mb/s
Encoded date : UTC 2018-10-06 19:22:43
Writing application : mkvmerge v27.0.0 ('Metropolis') 64-bit
Writing library : libebml v1.3.6 + libmatroska v1.4.9

Video
ID : 2
Format : AVC
Format/Info : Advanced Video Codec
Format profile : High@L4.1
Format settings : CABAC / 4 Ref Frames
Format settings, CABAC : Yes
Format settings, RefFrames : 4 frames
Codec ID : V_MPEG4/ISO/AVC
Duration : 23 min 42 s
Bit rate mode : Variable
Bit rate : 38.7 Mb/s
Maximum bit rate : 40.0 Mb/s
Width : 1 920 pixels
Height : 1 080 pixels
Display aspect ratio : 16:9
Frame rate mode : Constant
Frame rate : 23.976 (24000/1001) FPS
Color space : YUV
Chroma subsampling : 4:2:0
Bit depth : 8 bits
Scan type : Progressive
Bits/(Pixel*Frame) : 0.778
Stream size : 6.40 GiB (96%)
Default : No
Forced : No

Audio
ID : 1
Format : FLAC
Format/Info : Free Lossless Audio Codec
Codec ID : A_FLAC
Duration : 23 min 42 s
Bit rate mode : Variable
Bit rate : 1 442 kb/s
Channel(s) : 2 channels
Channel positions : Front: L R
Sampling rate : 48.0 kHz
Frame rate : 11.719 FPS (4096 SPF)
Bit depth : 24 bits
Stream size : 245 MiB (4%)
Writing library : libFLAC 1.2.1 (UTC 2007-09-17)
Language : Japanese
Default : Yes
Forced : No

Menu
00:00:00.000 : :00:00:00.000
00:01:27.004 : :00:01:27.004
00:02:57.052 : :00:02:57.052
00:10:00.058 : :00:10:00.058
00:22:13.958 : :00:22:13.958
00:23:30.075 : :00:23:30.075


Screenshots

Isekai Maou to Shoukan Shoujo no Dorei Majutsu (2018)

Isekai Maou to Shoukan Shoujo no Dorei Majutsu (2018)

Isekai Maou to Shoukan Shoujo no Dorei Majutsu (2018)


My publications | Rss Channel