Shuumatsu Nani Shitemasuka? Isogashii Desuka? Sukutte Moratte Ii Desuka? (2017)

Posted By: Lebedev30
1080p (FullHD) / BluRay Remux
Shuumatsu Nani Shitemasuka? Isogashii Desuka? Sukutte Moratte Ii Desuka? (2017)

Shuumatsu Nani Shitemasuka? Isogashii Desuka? Sukutte Moratte Ii Desuka? (2017)
BD-Remux | mkv | 1920x1080 | H264@~37 Mbps | 12x ~ 24mn | 12x ~6.6 Gb
日本語 FLAC@1289 Kbps | 2 channels | Subtitles: None
Genre: fantasy, magic, romance, seinen, tragedy


Description:
* Based on light novel series written by Kareno Akira and illustrated by Ue.

500 years have passed since the human race went extinct at the hands of invading beasts. The surviving races escaped into the floating islands in the sky, out of reach of the vicious monsters.

In such a setting, warrior Willem wakes up from a long, cursed slumber and finds himself to be the only human alive. He adapts to his new life and settles into a routine of odd jobs.

One day, he accepts a job offer to become an Enchanted Weapons Technician, but little does he know, these 'weapons' are actually a young group of girls from the Leprechaun race. As the only race compatible with the ancient weapons of the human race, the Leprechauns are utilized to secretly fight against the beasts who have made it into the sky. Willem becomes the caretaker of these girls and foster a familial connection. Now, Willem suddenly finds himself in a position which he was never in before as a warrior. He struggles with himself as he painfully and helplessly waits for his loved ones to come home from battle.




01. Broken Chronograph
02. Late Autumn Night`s Dream
03. Starry Road to Tomorrow
04. Dice in Pot
05. From Dawn Till Dusk
06. No News Was Good News
07. Home, Sweet Home
08. Slight Light, Slight Hope
09. Moonlit Sorcery
10. My Happiness
11. Evidence of Existence
12. Chtholly


General
Format : Matroska
Format version : Version 4 / Version 2
File size : 6.60 GiB
Duration : 24 min 12 s
Overall bit rate mode : Variable
Overall bit rate : 39.0 Mb/s
Encoded date : UTC 2017-07-09 19:18:57
Writing application : mkvmerge v12.0.0 ('Trust / Lust') 64bit
Writing library : libebml v1.3.4 + libmatroska v1.4.5

Video
ID : 2
Format : AVC
Format/Info : Advanced Video Codec
Format profile : High@L4.1
Format settings : CABAC / 4 Ref Frames
Format settings, CABAC : Yes
Format settings, RefFrames : 4 frames
Codec ID : V_MPEG4/ISO/AVC
Duration : 24 min 12 s
Bit rate mode : Variable
Bit rate : 37.7 Mb/s
Maximum bit rate : 40.0 Mb/s
Width : 1 920 pixels
Height : 1 080 pixels
Display aspect ratio : 16:9
Frame rate mode : Constant
Frame rate : 23.976 (24000/1001) FPS
Color space : YUV
Chroma subsampling : 4:2:0
Bit depth : 8 bits
Scan type : Progressive
Bits/(Pixel*Frame) : 0.759
Stream size : 6.38 GiB (97%)
Default : No
Forced : No

Audio
ID : 1
Format : FLAC
Format/Info : Free Lossless Audio Codec
Codec ID : A_FLAC
Duration : 24 min 12 s
Bit rate mode : Variable
Bit rate : 1 289 kb/s
Channel(s) : 2 channels
Channel positions : Front: L R
Sampling rate : 48.0 kHz
Frame rate : 11.719 FPS (4096 SPF)
Bit depth : 24 bits
Stream size : 223 MiB (3%)
Writing library : libFLAC 1.2.1 (UTC 2007-09-17)
Language : Japanese
Default : Yes
Forced : No

Menu
00:00:00.000 : en:00:00:00.000
00:01:01.061 : en:00:01:01.061
00:11:42.076 : en:00:11:42.076
00:20:38.070 : en:00:20:38.070
00:22:08.035 : en:00:22:08.035
00:24:06.028 : en:00:24:06.028


Screenshots

Shuumatsu Nani Shitemasuka? Isogashii Desuka? Sukutte Moratte Ii Desuka? (2017)

Shuumatsu Nani Shitemasuka? Isogashii Desuka? Sukutte Moratte Ii Desuka? (2017)

Shuumatsu Nani Shitemasuka? Isogashii Desuka? Sukutte Moratte Ii Desuka? (2017)


My publications | Rss Channel