Shokugeki no Souma: Ni no Sara (2016)

Posted By: Lebedev30
1080p (FullHD) / BluRay Remux IMDb
Shokugeki no Souma: Ni no Sara (2016)

Shokugeki no Souma: Ni no Sara (2016)
BD-Remux | mkv | 1920x1080 | H264@~36 Mbps | 13x ~ 24mn | 13x ~6.3 Gb
日本語 FLAC@1524 Kbps | 2 channels | Subtitles: None
Genre: cooking, shounen


Description:
* Based on shounen manga series written by Tsukuda Yuuto and illustrated by Saeki Shun.

Yukihira Souma has been helping out at his family diner his entire life. Upon graduating from junior high, he is prompted by his father to join an elite cooking school, Totsuki Teahouse Culinary Academy, where less than 10% of students have been known to make it to graduation. Souma overcomes many challenges and hones his culinary skills, meeting like-minded classmates and influential figures in the student body along the way.

Soma eventually wins the right to compete in the academy's traditional Autumn Elections where only the chosen few first-years are allowed entry. Soma loses to his opponent by a single point, but makes it into the next round along with Megumi, Takumi, Hisako, Alice, Kurokiba, Hayama, and Mimasaka. Whom among them will be his next opponent, and who will emerge victorious?






01. What Fills the Box
02. The Interplay of Light and Shadow
03. The Generation of Prodigies
04. The Pursuer
05. The Secret in the First Bite
06. Dawn Will Come Again
07. Beasts Devouring Each Other
08. Battle of Seasonality
09. A Sword That Signals Autumn
10. A New Genius
11. The Stagiaire
12. The Magician Once More
13. Pomp and Circumstance


General
Format : Matroska
Format version : Version 4 / Version 2
File size : 6.34 GiB
Duration : 24 min 12 s
Overall bit rate mode : Variable
Overall bit rate : 37.5 Mb/s
Encoded date : UTC 2016-10-16 11:19:09
Writing application : mkvmerge v9.4.2 ('So High') 64bit
Writing library : libebml v1.3.4 + libmatroska v1.4.5

Video
ID : 2
Format : AVC
Format/Info : Advanced Video Codec
Format profile : High@L4.1
Format settings : CABAC / 4 Ref Frames
Format settings, CABAC : Yes
Format settings, RefFrames : 4 frames
Codec ID : V_MPEG4/ISO/AVC
Duration : 24 min 12 s
Bit rate mode : Variable
Bit rate : 36.0 Mb/s
Maximum bit rate : 39.0 Mb/s
Width : 1 920 pixels
Height : 1 080 pixels
Display aspect ratio : 16:9
Frame rate mode : Constant
Frame rate : 23.976 (24000/1001) FPS
Color space : YUV
Chroma subsampling : 4:2:0
Bit depth : 8 bits
Scan type : Progressive
Bits/(Pixel*Frame) : 0.724
Stream size : 6.08 GiB (96%)
Default : No
Forced : No

Audio
ID : 1
Format : FLAC
Format/Info : Free Lossless Audio Codec
Codec ID : A_FLAC
Duration : 24 min 12 s
Bit rate mode : Variable
Bit rate : 1 524 kb/s
Channel(s) : 2 channels
Channel positions : Front: L R
Sampling rate : 48.0 kHz
Frame rate : 11.719 FPS (4096 SPF)
Bit depth : 24 bits
Stream size : 264 MiB (4%)
Writing library : libFLAC 1.2.1 (UTC 2007-09-17)
Language : Japanese
Default : Yes
Forced : No

Menu
00:00:00.000 : en:00:00:00.000
00:01:12.990 : en:00:01:12.990
00:10:36.052 : en:00:10:36.052
00:22:13.082 : en:00:22:13.082
00:23:43.047 : en:00:23:43.047
00:24:06.070 : en:00:24:06.070


Screenshots

Shokugeki no Souma: Ni no Sara (2016)

Shokugeki no Souma: Ni no Sara (2016)

Shokugeki no Souma: Ni no Sara (2016)


My publications | Rss Channel