Omamori Himari (2010)

Posted By: Lebedev30
1080p (FullHD) / BluRay Remux IMDb
Omamori Himari (2010)

Omamori Himari (2010)
BD-Remux | m2ts | 1920x1080 | H264@~35 Mbps | 12x ~ 24mn | 12x ~6.2 Gb
日本語 PCM@1536 Kbps | 2 channels | Subtitles: None
Genre: anthropomorphism, comedy, contemporary fantasy, demon, ecchi, harem, shounen, super power


Description:
* Based on a shounen manga by Matra Milan, serialised in Monthly Dragon Age.

Seven years ago, Amakawa Yuuto's parents died leaving him behind to live alone without a single relative. Ever since then, his childhood friend, Kuzaki Rinko, has woken him up, cooked for him and generally taken care of him. The only family-related thing left to him is a mysterious charm, a red ball given to him by his grandparents as a good luck charm, an omamori.

From the day of his 16th birthday, his charm is said to not be able to protect him from evil spirits any more, and into Yuuto's life walks Himari. A cat spirit-samurai girl and demon huntress who, aside from wanting to copulate with him madly, swears to protect Yuuto. Unfortunately, Yuuto has a severe allergic reaction to cats.






01. A Cat, a Girl, and Allergies
02. Ocean Cat Scramble
03. Maid in Cat
04. The White Cat of Noihara
05. A Troubled Cat and Composure
06. Kiss x Cat x Kiss
07. The Cat`s Regard and the Magical Girl`s Melancholy
08. Curiosity Killed the Cat
09. Meowing Darkness Creeps
10. The Uncanny Cat`s Sentiments
11. Cat (Himari), as the Blade That Protects…
12. The Cat, Yuuto, and a Girl`s Pure Heart


General
Format : BDAV
Format/Info : Blu-ray Video
File size : 6.30 GiB
Duration : 23 min 40 s
Overall bit rate mode : Variable
Overall bit rate : 38.1 Mb/s
Maximum Overall bit rate : 35.5 Mb/s

Video
ID : 4113 (0x1011)
Menu ID : 1 (0x1)
Format : AVC
Format/Info : Advanced Video Codec
Format profile : High@L4.1
Format settings : CABAC / 2 Ref Frames
Format settings, CABAC : Yes
Format settings, RefFrames : 2 frames
Codec ID : 27
Duration : 23 min 40 s
Bit rate mode : Variable
Bit rate : 35.0 Mb/s
Width : 1 920 pixels
Height : 1 080 pixels
Display aspect ratio : 16:9
Frame rate : 23.976 (24000/1001) FPS
Color space : YUV
Chroma subsampling : 4:2:0
Bit depth : 8 bits
Scan type : Progressive
Bits/(Pixel*Frame) : 0.705
Stream size : 5.80 GiB (92%)

Audio
ID : 4352 (0x1100)
Menu ID : 1 (0x1)
Format : PCM
Format settings : Big / Signed
Muxing mode : Blu-ray
Codec ID : 128
Duration : 23 min 40 s
Bit rate mode : Constant
Bit rate : 1 536 kb/s
Channel(s) : 2 channels
Channel positions : Front: L R
Sampling rate : 48.0 kHz
Bit depth : 16 bits
Stream size : 260 MiB (4%)


Screenshots

Omamori Himari (2010)

Omamori Himari (2010)

Omamori Himari (2010)


My publications | Rss Channel