Clockwork Planet (2017)

Posted By: Lebedev30
1080p (FullHD) / BluRay Remux IMDb
Clockwork Planet (2017)

Clockwork Planet (2017)
BD-Remux | mkv | 1920x1080 | H264@~37 Mbps | 12x ~ 25mn | 12x ~ 6.6 Gb
日本語 FLAC@1453 Kbps | 2 channels | Subtitles: None
Genre: action, android, fantasy, science fiction, shounen, steampunk


Description:
This news may seem sudden… but this world died long ago.

Earth died a thousand years ago, and a legendary clockmaker known only as "Y" rebuilt it using clockwork. Naoto Miura, a failing high school student, encounters RyuZU, an automaton that "Y" left behind, and the genius clockmaker Marie. When the abilities of these three come together, the gears of fate begin to turn. The cycle of failure and success repeats endlessly as the three of them work to repair the endangered "Clockwork Planet" in this clockpunk fantasy!






01. Gear of Destiny
02. Purge
03. Conflict
04. Imaginary Gear
05. Trishula "One Who Annihilates"
06. Deep Underground
07. Attack the Multiple Grid
08. Yatsukahagi
09. Criminal Act
10. Progressor
11. Theory of Y
12. Steel Weight


General
Format : Matroska
Format version : Version 4 / Version 2
File size : 6.60 GiB
Duration : 24 min 12 s
Overall bit rate mode : Variable
Overall bit rate : 39.1 Mb/s
Encoded date : UTC 2017-07-08 12:01:55
Writing application : mkvmerge v12.0.0 ('Trust / Lust') 64bit
Writing library : libebml v1.3.4 + libmatroska v1.4.5

Video
ID : 2
Format : AVC
Format/Info : Advanced Video Codec
Format profile : High@L4.1
Format settings : CABAC / 4 Ref Frames
Format settings, CABAC : Yes
Format settings, RefFrames : 4 frames
Codec ID : V_MPEG4/ISO/AVC
Duration : 24 min 12 s
Bit rate mode : Variable
Bit rate : 37.6 Mb/s
Maximum bit rate : 39.0 Mb/s
Width : 1 920 pixels
Height : 1 080 pixels
Display aspect ratio : 16:9
Frame rate mode : Constant
Frame rate : 23.976 (24000/1001) FPS
Color space : YUV
Chroma subsampling : 4:2:0
Bit depth : 8 bits
Scan type : Progressive
Bits/(Pixel*Frame) : 0.757
Stream size : 6.36 GiB (96%)
Default : No
Forced : No

Audio
ID : 1
Format : FLAC
Format/Info : Free Lossless Audio Codec
Codec ID : A_FLAC
Duration : 24 min 12 s
Bit rate mode : Variable
Bit rate : 1 453 kb/s
Channel(s) : 2 channels
Channel positions : Front: L R
Sampling rate : 48.0 kHz
Frame rate : 11.719 FPS (4096 SPF)
Bit depth : 24 bits
Stream size : 252 MiB (4%)
Writing library : libFLAC 1.2.1 (UTC 2007-09-17)
Language : Japanese
Default : Yes
Forced : No

Menu
00:00:00.000 : en:00:00:00.000
00:03:19.991 : en:00:03:19.991
00:04:49.998 : en:00:04:49.998
00:13:12.959 : en:00:13:12.959
00:22:09.995 : en:00:22:09.995
00:23:40.002 : en:00:23:40.002


Screenshots

Clockwork Planet (2017)

Clockwork Planet (2017)

Clockwork Planet (2017)


My publications | Rss Channel