Hagure Yuusha no Estetica (2012)

Posted By: Lebedev30
1080p (FullHD) / BluRay Remux IMDb
Hagure Yuusha no Estetica (2012)

Hagure Yuusha no Estetica (2012)
BD-Remux | m2ts | 1920x1080 | H264@~38 Mbps | 12x ~ 24mn | 12x ~6.8 Gb
日本語 PCM@1536 Kbps | 2 channels | Subtitles: None
Genre: action, comedy, contemporary fantasy, ecchi, fantasy, romance, seinen, super power


Description:
Ousawa Akatsuki, trapped by summoning magic in the Otherworld realm of Alayzard, has finally been proclaimed a hero for defeating the Dark Lord Galious and a rogue hero for his independent and philandering ways. After choosing to return to his home world through the Otherworld Gate, he is inducted into BABEL University, a place where returnees can learn to develop and use the abilities gained in the Otherworlds for the good of humanity. However, Akatsuki has brought back a secret in the form of his beautiful long-lost sister Miu who is actually the daughter of the Dark Lord he defeated. Furthermore BABEL harbours secrets regarding the true purpose of training returnees, and Alayzard's troubles with the defeated Dark Cult and the secrets they harbour are far from over.






01. New Game Plus
02. Bonds of Holy Water
03. To Become an Adult
04. The Hero`s Back
05. Just a Short Repose
06. Supersonic Sleipnir!
07. A Crude Panic on the Beach!
08. BABEL`s Ranking Matches Begin
09. On Such a Beautiful Moonlit Night
10. Where I Belong
11. Before Daybreak
12. The World Is Watching You


General
Format : BDAV
Format/Info : Blu-ray Video
File size : 6.85 GiB
Duration : 23 min 41 s
Overall bit rate mode : Variable
Overall bit rate : 41.4 Mb/s
Maximum Overall bit rate : 48.0 Mb/s

Video
ID : 4113 (0x1011)
Menu ID : 1 (0x1)
Format : AVC
Format/Info : Advanced Video Codec
Format profile : High@L4.1
Format settings : CABAC / 2 Ref Frames
Format settings, CABAC : Yes
Format settings, RefFrames : 2 frames
Codec ID : 27
Duration : 23 min 41 s
Bit rate mode : Variable
Bit rate : 38.2 Mb/s
Width : 1 920 pixels
Height : 1 080 pixels
Display aspect ratio : 16:9
Frame rate : 23.976 (24000/1001) FPS
Color space : YUV
Chroma subsampling : 4:2:0
Bit depth : 8 bits
Scan type : Progressive
Bits/(Pixel*Frame) : 0.768
Stream size : 6.32 GiB (92%)

Audio
ID : 4352 (0x1100)
Menu ID : 1 (0x1)
Format : PCM
Format settings : Big / Signed
Muxing mode : Blu-ray
Codec ID : 128
Duration : 23 min 41 s
Bit rate mode : Constant
Bit rate : 1 536 kb/s
Channel(s) : 2 channels
Channel positions : Front: L R
Sampling rate : 48.0 kHz
Bit depth : 16 bits
Stream size : 260 MiB (4%)


Screenshots

Hagure Yuusha no Estetica (2012)

Hagure Yuusha no Estetica (2012)

Hagure Yuusha no Estetica (2012)


My publications | Rss Channel