Seihou Bukyou Outlaw Star (1998)

Posted By: Lebedev30
1080p (FullHD) / BluRay Remux IMDb
Seihou Bukyou Outlaw Star (1998)

Seihou Bukyou Outlaw Star (1998)
BD-Remux | mkv | 1920x1080 | H264@~31 Mbps | 26x ~ 24mn | 26x ~5.5 Gb
日本語 FLAC@615 Kbps | 2 channels | Subtitles: None
Genre: alien, bounty hunter, gunfights, science fiction, seinen


Description:
Space is mainly inhabited by three different groups: the Federation that is the real government, various pirate clans using special techniques and magic to dominate the frontier, and the outlaws who fall in between the former two factions. There are also various alien races and empires which sort of fall within this category.

It is on this frontier that Gene Starwind and his 11-year-old partner Jim Hawking, freelance bounty hunters and odd-job takers extraordinary, live and work. Until they happen to take on a job from a mysterious woman named Hilda. In no time flat they are up to their ears in trouble.






01. Outlaw World
02. World of Desires
03. Into Burning Space
04. When the Hot Ice Melts
05. Beast Girl Ready to Pounce!
06. The Beautiful Assassin
07. Creeping Evil
08. Forced Departure
09. A Journey of Adventure! Huh?
10. Gathering for the Space Race
11. Adrift in Subspace
12. Mortal Combat with the El Dorado
13. Advance Guard from Another World
14. Final Countdown
15. The Seven Emerge
16. Between Life and Machine
17. The Strongest Woman in the Universe
18. Law and Lawlessness
19. Cats and Girls and Space Ships
20. Grave of the Dragon
21. Gravity Jailbreak
22. Cutting the Galactic Leyline
23. Maze of Despair
24. Return to Space
S1. Demon of the Water Planet
S2. Hot Springs Planet Tenrei


General
Format : Matroska
Format version : Version 4 / Version 2
File size : 5.34 GiB
Duration : 24 min 7 s
Overall bit rate mode : Variable
Overall bit rate : 31.7 Mb/s
Encoded date : UTC 2015-01-14 20:57:42
Writing application : mkvmerge v7.5.0 ('Glass Culture') 64bit built on Jan 4 2015 16:48:44
Writing library : libebml v1.3.1 + libmatroska v1.4.2

Video
ID : 2
Format : AVC
Format/Info : Advanced Video Codec
Format profile : High@L4.1
Format settings : CABAC / 4 Ref Frames
Format settings, CABAC : Yes
Format settings, RefFrames : 4 frames
Codec ID : V_MPEG4/ISO/AVC
Duration : 24 min 7 s
Bit rate mode : Variable
Bit rate : 31.1 Mb/s
Maximum bit rate : 39.0 Mb/s
Width : 1 920 pixels
Height : 1 080 pixels
Display aspect ratio : 16:9
Frame rate mode : Constant
Frame rate : 23.976 (24000/1001) FPS
Color space : YUV
Chroma subsampling : 4:2:0
Bit depth : 8 bits
Scan type : Progressive
Bits/(Pixel*Frame) : 0.625
Stream size : 5.23 GiB (98%)
Default : No
Forced : No

Audio
ID : 1
Format : FLAC
Format/Info : Free Lossless Audio Codec
Codec ID : A_FLAC
Duration : 24 min 7 s
Bit rate mode : Variable
Bit rate : 615 kb/s
Channel(s) : 2 channels
Channel positions : Front: L R
Sampling rate : 48.0 kHz
Frame rate : 11.719 FPS (4096 SPF)
Bit depth : 16 bits
Stream size : 106 MiB (2%)
Writing library : libFLAC 1.2.1 (UTC 2007-09-17)
Language : Japanese
Default : Yes
Forced : No

Menu
00:00:00.000 : en:00:00:00.000
00:00:44.044 : en:00:00:44.044
00:02:14.134 : en:00:02:14.134
00:13:28.808 : en:00:13:28.808
00:22:06.325 : en:00:22:06.325
00:23:36.415 : en:00:23:36.415


Screenshots

Seihou Bukyou Outlaw Star (1998)

Seihou Bukyou Outlaw Star (1998)

Seihou Bukyou Outlaw Star (1998)


My publications | Rss Channel