Kemono Friends 2 (2019) Part 1 & Part 2

Posted By: Lebedev30
1080p (FullHD) / BluRay Remux
Kemono Friends 2 (2019) Part 1 & Part 2

Kemono Friends 2 (2019) Part 1 & Part 2
BD-Remux | m2ts | 1920x1080 | H264@~36 Mbps | 6x ~ 24mn | 6x ~6.6 Gb
日本語 PCM@2304 Kbps | 2 channels | Subtitles: None
Genre: juujin


Description:
At Japari Park, an enormous integrated zoo somewhere in this world, a mysterious phenomenon caused all the animals to take on humanlike appearances. In their new forms, they came to be known as "Friends," and they all lived in harmony together in the park. One day, The Friends Serval and Caracal meet a human child in the forest. They invite the hungry child to join them on their travels, and they go on to find many unique new Friends, delicious foods, and secrets of the park! They even face a dire situation that rocks the very earth beneath them!




01. Beyond Memories
02. Panda and Panda
03. Creatures of the Sea
04. Different Kinds of Houses
05. The Power of Humans
06. A New Morning


General
Format : BDAV
Format/Info : Blu-ray Video
File size : 6.70 GiB
Duration : 23 min 57 s
Overall bit rate mode : Variable
Overall bit rate : 40.0 Mb/s
Maximum Overall bit rate : 48.0 Mb/s

Video
ID : 4113 (0x1011)
Menu ID : 1 (0x1)
Format : AVC
Format/Info : Advanced Video Codec
Format profile : High@L4.1
Format settings : CABAC / 4 Ref Frames
Format settings, CABAC : Yes
Format settings, RefFrames : 4 frames
Codec ID : 27
Duration : 23 min 57 s
Bit rate mode : Variable
Bit rate : 36.1 Mb/s
Maximum bit rate : 40.0 Mb/s
Width : 1 920 pixels
Height : 1 080 pixels
Display aspect ratio : 16:9
Frame rate : 23.976 (24000/1001) FPS
Color space : YUV
Chroma subsampling : 4:2:0
Bit depth : 8 bits
Scan type : Progressive
Bits/(Pixel*Frame) : 0.727
Stream size : 6.04 GiB (90%)

Audio
ID : 4352 (0x1100)
Menu ID : 1 (0x1)
Format : PCM
Format settings : Big / Signed
Muxing mode : Blu-ray
Codec ID : 128
Duration : 23 min 57 s
Bit rate mode : Constant
Bit rate : 2 304 kb/s
Channel(s) : 2 channels
Channel positions : Front: L R
Sampling rate : 48.0 kHz
Bit depth : 24 bits
Stream size : 395 MiB (6%)


Screenshots

Kemono Friends 2 (2019) Part 1 & Part 2

Kemono Friends 2 (2019) Part 1 & Part 2

Kemono Friends 2 (2019) Part 1 & Part 2


My publications | Rss Channel