Kono Subarashii Sekai ni Shukufuku o! 2 (2017)

Posted By: Lebedev30
1080p (FullHD) / WEBRip IMDb
Kono Subarashii Sekai ni Shukufuku o! 2 (2017)

Kono Subarashii Sekai ni Shukufuku o! 2 (2017)
WEBRip | MKV | 1920x1080 | H264@1552 Kbps | 11x ~ 25mn | 11x ~300 Mb
日本語 AAC@126 Kbps | 2 channels | Subtitles: العربية, English, Español, Português
Genre: adventure, comedy, deity, ecchi, fantasy, magic, parallel world


Description:
Following a tragic accident, the game-loving shut-in Satou Kazuma was reborn in a parallel world. Though his dream of enjoying a new life as an adventurer in an RPG-inspired world and striving to be a hero didn't come true, he managed to get by in his new world. He was joined by Aqua, the goddess who accompanied him to the parallel world; Megumin, an arch wizard who can only use her magic once a day; and Darkness, a crusader whose attacks always miss. And so, along with his party of girls who have extremely advanced powers but unfortunately can't take full advantage of them, he managed to complete some quests here and there.

Then, one day, after Kazuma's party saved the town of Axel from the mobile fortress Destroyer, a messenger from the capital came to tell Kazuma that he was suspected of the crime of subversion to the state! Where will the ordinary adventurer Kazuma's life in a parallel world lead him tomorrow?!






01. Give Me Deliverance from This Judicial Injustice!
02. A Friend for This Crimson Demon Girl!
03. Peace for the Master of This Labyrinth!
04. A Betrothed for This Noble Daughter!
05. Servitude for This Masked Knight!
06. Goodbye to This Irritating Living World!
07. An Invitation for This Knucklehead!
08. Sightseeing in This Pitiful City!
09. A Goddess for This Corrupt Hot Springs Town!
10. God`s Blessing on This Wonderful Party!
11. Ova


General
Format : Matroska
Format version : Version 4 / Version 2
File size : 285 MiB
Duration : 23 min 40 s
Overall bit rate : 1 680 kb/s
Encoded date : UTC 2017-07-31 17:03:35
Writing application : mkvmerge v13.0.0 ('The Juggler') 64bit
Writing library : libebml v1.3.4 + libmatroska v1.4.5

Video
ID : 5
Format : AVC
Format/Info : Advanced Video Codec
Format profile : High@L4
Format settings : CABAC / 4 Ref Frames
Format settings, CABAC : Yes
Format settings, RefFrames : 4 frames
Codec ID : V_MPEG4/ISO/AVC
Duration : 23 min 40 s
Bit rate : 1 552 kb/s
Width : 1 920 pixels
Height : 1 080 pixels
Display aspect ratio : 16:9
Frame rate mode : Constant
Frame rate : 23.976 (24000/1001) FPS
Color space : YUV
Chroma subsampling : 4:2:0
Bit depth : 8 bits
Scan type : Progressive
Bits/(Pixel*Frame) : 0.031
Stream size : 263 MiB (92%)
Writing library : x264 core 142
Encoding settings : cabac=1 / ref=4 / deblock=1:1:1 / analyse=0x3:0x113 / me=hex / subme=6 / psy=1 / psy_rd=0.40:0.00 / mixed_ref=1 / me_range=16 / chroma_me=1 / trellis=1 / 8x8dct=1 / cqm=0 / deadzone=21,11 / fast_pskip=1 / chroma_qp_offset=-2 / threads=12 / lookahead_threads=2 / sliced_threads=0 / nr=0 / decimate=1 / interlaced=0 / bluray_compat=0 / constrained_intra=0 / bframes=5 / b_pyramid=2 / b_adapt=1 / b_bias=0 / direct=1 / weightb=1 / open_gop=0 / weightp=1 / keyint=48 / keyint_min=24 / scenecut=40 / intra_refresh=0 / rc_lookahead=30 / rc=crf / mbtree=1 / crf=20.0 / qcomp=0.60 / qpmin=0 / qpmax=69 / qpstep=4 / vbv_maxrate=8000 / vbv_bufsize=12000 / crf_max=0.0 / nal_hrd=none / filler=0 / ip_ratio=1.40 / aq=1:0.60
Default : Yes
Forced : No

Audio
ID : 6
Format : AAC
Format/Info : Advanced Audio Codec
Format profile : LC
Codec ID : A_AAC-2
Duration : 23 min 40 s
Bit rate : 126 kb/s
Channel(s) : 2 channels
Channel positions : Front: L R
Sampling rate : 44.1 kHz
Frame rate : 43.066 FPS (1024 SPF)
Compression mode : Lossy
Delay relative to video : -83 ms
Stream size : 21.3 MiB (7%)
Default : Yes
Forced : No

Text #1
ID : 1
Format : ASS
Codec ID : S_TEXT/ASS
Codec ID/Info : Advanced Sub Station Alpha
Duration : 23 min 38 s
Bit rate : 198 b/s
Count of elements : 429
Compression mode : Lossless
Stream size : 34.4 KiB (0%)
Language : English
Default : Yes
Forced : No

Text #2
ID : 2
Format : ASS
Codec ID : S_TEXT/ASS
Codec ID/Info : Advanced Sub Station Alpha
Duration : 23 min 38 s
Bit rate : 186 b/s
Count of elements : 419
Compression mode : Lossless
Stream size : 32.3 KiB (0%)
Language : Spanish
Default : No
Forced : No

Text #3
ID : 3
Format : ASS
Codec ID : S_TEXT/ASS
Codec ID/Info : Advanced Sub Station Alpha
Duration : 23 min 38 s
Bit rate : 198 b/s
Count of elements : 427
Compression mode : Lossless
Stream size : 34.3 KiB (0%)
Language : Portuguese
Default : No
Forced : No

Text #4
ID : 4
Format : ASS
Codec ID : S_TEXT/ASS
Codec ID/Info : Advanced Sub Station Alpha
Duration : 23 min 38 s
Bit rate : 233 b/s
Count of elements : 429
Compression mode : Lossless
Stream size : 40.4 KiB (0%)
Language : Arabic
Default : No
Forced : No


Screenshots

Kono Subarashii Sekai ni Shukufuku o! 2 (2017)

Kono Subarashii Sekai ni Shukufuku o! 2 (2017)

Kono Subarashii Sekai ni Shukufuku o! 2 (2017)


My publications | Rss Channel