Made in Abyss (2017)

Posted By: Lebedev30
1080p (FullHD) / WEBRip IMDb
Made in Abyss (2017)

Made in Abyss (2017)
WEBRip | MKV | 1920x1080 | H264@2692 Kbps | 13x ~ 25mn | 13x ~500 Mb-1 Gb
日本語 E-AC-3@224 Kbps | 2 channels | Subtitles: English, Español, Português
Genre: adventure, android, mecha, science fiction, seinen, violence


Description:
* Based on Tsukushi Akihito's seinen manga series.

The enormous cave system, known as the Abyss, is the last unexplored place in the world. Nobody knows how deep down goes this titanic pit, inhabited by strange and wondrous creatures and full of mysterious ancient relics which purpose in unknown to modern man. Generations of bold adventurers have been drawn by the cryptic depths of the Abyss. In course of time those brave enough to explore the dangerous pit came to be known as Cave Raiders.

In Orth, the town at the edge of the Abyss, there lives a little orphan named Riko, who dreams of becoming as great a cave raider as her mother was and solving the great mystery of the pit. One day exploring the murky depths she stumbles upon a little boy, who turns out to be a robot…






01. The City of the Great Pit
02. Resurrection Festival
03. Departure
04. The Edge of the Abyss
05. Incinerator
06. Seeker Camp
07. The Unmovable Sovereign
08. Survival Training
09. The Great Fault
10. Poison and the Curse
11. Nanachi
12. The True Nature of the Curse
13. The Challengers


General
Format : Matroska
Format version : Version 4 / Version 2
File size : 494 MiB
Duration : 23 min 40 s
Overall bit rate : 2 918 kb/s
Encoded date : UTC 2017-10-12 07:04:46
Writing application : mkvmerge v13.0.0 ('The Juggler') 64bit
Writing library : libebml v1.3.4 + libmatroska v1.4.5

Video
ID : 1
Format : AVC
Format/Info : Advanced Video Codec
Format profile : High 4:4:4 Predictive@L5.1
Format settings : CABAC / 16 Ref Frames
Format settings, CABAC : Yes
Format settings, RefFrames : 16 frames
Codec ID : V_MPEG4/ISO/AVC
Duration : 23 min 40 s
Bit rate : 2 692 kb/s
Width : 1 920 pixels
Height : 1 080 pixels
Display aspect ratio : 16:9
Frame rate mode : Constant
Frame rate : 23.976 (24000/1001) FPS
Color space : YUV
Chroma subsampling : 4:4:4
Bit depth : 10 bits
Scan type : Progressive
Bits/(Pixel*Frame) : 0.054
Stream size : 456 MiB (92%)
Writing library : x264 core 148 r2762+56 6284cf3 t_mod_Custom [10-bit@all X86_64]
Encoding settings : cabac=1 / ref=16 / deblock=1:1:1 / analyse=0x3:0x133 / me=esa / subme=11 / psy=1 / fade_compensate=0.00 / psy_rd=0.40:0.00 / mixed_ref=1 / me_range=24 / chroma_me=1 / trellis=2 / 8x8dct=1 / cqm=0 / deadzone=21,11 / fast_pskip=1 / chroma_qp_offset=4 / threads=12 / lookahead_threads=3 / sliced_threads=0 / nr=0 / decimate=1 / interlaced=0 / bluray_compat=0 / constrained_intra=0 / fgo=0 / bframes=16 / b_pyramid=2 / b_adapt=2 / b_bias=0 / direct=3 / weightb=1 / open_gop=1 / weightp=2 / keyint=250 / keyint_min=23 / scenecut=40 / intra_refresh=0 / rc_lookahead=60 / rc=crf / mbtree=1 / crf=14.0000 / qcomp=0.60 / qpmin=0:0:0 / qpmax=81:81:81 / qpstep=4 / vbv_maxrate=960000 / vbv_bufsize=960000 / crf_max=0.0 / nal_hrd=none / filler=0 / ip_ratio=1.40 / aq=3:0.60 / aq-sensitivity=10.00 / aq-factor=1.00:1.00:1.00 / aq2=0 / aq3=0
Language : Japanese
Default : Yes
Forced : No
Color range : Limited
Color primaries : BT.709
Transfer characteristics : BT.709
Matrix coefficients : BT.709

Audio
ID : 2
Format : E-AC-3
Format/Info : Enhanced Audio Coding 3
Codec ID : A_EAC3
Duration : 23 min 40 s
Bit rate mode : Constant
Bit rate : 224 kb/s
Channel(s) : 2 channels
Channel positions : Front: L R
Sampling rate : 48.0 kHz
Frame rate : 187.500 FPS (256 SPF)
Compression mode : Lossy
Stream size : 37.9 MiB (8%)
Language : Japanese
Service kind : Complete Main
Default : Yes
Forced : No

Text #1
ID : 3
Format : ASS
Codec ID : S_TEXT/ASS
Codec ID/Info : Advanced Sub Station Alpha
Duration : 23 min 36 s
Bit rate : 110 b/s
Count of elements : 391
Compression mode : Lossless
Stream size : 19.1 KiB (0%)
Language : English
Default : Yes
Forced : No

Text #2
ID : 4
Format : ASS
Codec ID : S_TEXT/ASS
Codec ID/Info : Advanced Sub Station Alpha
Duration : 23 min 36 s
Bit rate : 102 b/s
Count of elements : 377
Compression mode : Lossless
Stream size : 17.8 KiB (0%)
Language : Portuguese
Default : No
Forced : No

Text #3
ID : 5
Format : ASS
Codec ID : S_TEXT/ASS
Codec ID/Info : Advanced Sub Station Alpha
Duration : 23 min 36 s
Bit rate : 101 b/s
Count of elements : 373
Compression mode : Lossless
Stream size : 17.6 KiB (0%)
Language : Spanish
Default : No
Forced : No


Screenshots

Made in Abyss (2017)

Made in Abyss (2017)

Made in Abyss (2017)


My publications | Rss Channel