8 femmes | 8 Women (2002)

Posted By: Morocco
8 femmes | 8 Women (2002)

8 femmes | 8 Women (2002)
DVDRip | French | 1h46min | 720 x 416 | 25.000 fps | Avi | MPEG-4 DivX 5 @ 754 Kbps | MP3 @ 160 Kbps | 700 MB
Subtitles : English, Spanish, German, Dutch, Portuguese
Genre : Musical, Comedy, Crime, Mystery

One morning at an isolated mansion in the snowy countryside of 1950s France, a family is gathered for the holiday season. But there will be no celebration at all because their beloved patriarch has been murdered! The killer can only be one of the eight women closest to the man of the house. Was it his powerful wife? His spinster sister-in-law? His miserly mother-in-law? Maybe the insolent chambermaid or the loyal housekeeper? Could it possibly have been one of his two young daughters? A surprise visit from the victim's chic sister sends the household into a tizzy, encouraging hysterics, exacerbating rivalries, and encompassing musical interludes. Comedic situations arise with the revelations of dark family secrets. Seduction dances with betrayal. The mystery of the female psyche is revealed. There are eight women and each is a suspect. Each has a motive. Each has a secret. Beautiful, tempestuous, intelligent, sensual, and dangerous…one of them is guilty. Which one is it ?



Format : AVI
Format/Info : Audio Video Interleave
File size : 700 MiB
Duration : 1h 46mn
Overall bit rate : 923 Kbps
Writing library : VirtualDub build 13130/release

Video
ID : 0
Format : MPEG-4 Visual
Format settings, BVOP : Yes
Format settings, QPel : No
Format settings, GMC : No warppoints
Format settings, Matrix : Default (H.263)
Codec ID : DX50
Codec ID/Hint : DivX 5
Duration : 1h 46mn
Bit rate : 754 Kbps
Width : 720 pixels
Height : 416 pixels
Display aspect ratio : 16:9
Frame rate : 25.000 fps
Color space : YUV
Chroma subsampling : 4:2:0
Bit depth : 8 bits
Scan type : Progressive
Compression mode : Lossy
Bits/(Pixel*Frame) : 0.101
Stream size : 572 MiB (82%)
Writing library : DivX 5.0.2 (UTC 2002-05-16)

Audio
ID : 1
Format : MPEG Audio
Format version : Version 1
Format profile : Layer 3
Mode : Joint stereo
Mode extension : MS Stereo
Codec ID : 55
Codec ID/Hint : MP3
Duration : 1h 46mn
Bit rate mode : Constant
Bit rate : 160 Kbps
Channel(s) : 2 channels
Sampling rate : 44.1 KHz
Compression mode : Lossy
Stream size : 121 MiB (17%)
Alignment : Split accross interleaves
Interleave, duration : 40 ms (1.00 video frame)
Interleave, preload duration : 478 ms


8 femmes | 8 Women (2002)


~ Single Link ~



Pass : Morocco

No Mirrors !