A Beginner's Guide to Snuff (2016)

Posted By: Tavaz
1080p (FullHD) / BDRip IMDb
A Beginner's Guide to Snuff (2016)

A Beginner's Guide to Snuff (2016)
WEB-DL | MKV | 1920x1080 | German / English | H265 @ 4012 kbps | DTS @ 1509 kbps | 1 h 27 min | 4.28 GiB
Genre: Comedy, Horror, Thriller

Die Brüder Dresden (Joey Kern) und Dominic Winters (Luke Edwards) wollen ins Filmgeschäft einsteigen. Also beschließen sie, bei einem Horrorfilm-Contest mitzumachen. Um die Jury zu überzeugen, planen sie, ein Snuff-Movie zu drehen. Wirklich jemanden töten kommt dabei freilich nicht in Frage, aber um es möglichst echt wirken zu lassen, kidnappen die beiden die Schauspielerin Jennifer (Bree Williamson) und beginnen etwas unkoordiniert mit der Folterei. Schließlich ist das eine Win-Win-Situation für beide Seiten: Später wird das Mädchen ihnen danken, berühmt geworden zu sein, denken Dresden und Dominic. Die eigene Berühmtheit gerät allerdings massiv in Gefahr, denn bei ihrem Opfer sind sie eindeutig an die falsche Frau geraten…

Was.die.VAVOO.BOX.alles.kann.erfaehrst.Du.in.diesem.Video.mp4 (99.9 MB)
SHHD-Abeggutosnux265.mkv (4.3 GB)



General
Unique ID : 180657403599215704077761756614685503606 (0x87E959AF02AECAED10CA4F8A47B63076)
Complete name : ./A.Beginners.Guide.To.Snuff.2016.German.DL.DTS.1080p.BluRay.x265-SHOWEHD/SHHD-Abeggutosnux265.mkv
Format : Matroska
Format version : Version 4 / Version 2
File size : 4.28 GiB
Duration : 1 h 27 min
Overall bit rate : 7 034 kb/s
Encoded date : UTC 2018-03-25 18:15:31
Writing application : mkvmerge v19.0.0 ('Brave Captain') 64-bit
Writing library : libebml v1.3.5 + libmatroska v1.4.8

Video
ID : 1
Format : HEVC
Format/Info : High Efficiency Video Coding
Format profile : Main@L4@Main
Codec ID : V_MPEGH/ISO/HEVC
Duration : 1 h 27 min
Bit rate : 4 012 kb/s
Width : 1 920 pixels
Height : 1 080 pixels
Display aspect ratio : 16:9
Frame rate mode : Constant
Frame rate : 23.976 (24000/1001) FPS
Color space : YUV
Chroma subsampling : 4:2:0
Bit depth : 8 bits
Bits/(Pixel*Frame) : 0.081
Stream size : 2.44 GiB (57%)
Writing library : x265 2.5+2-18fa144d453e:[Windows][GCC 7.1.0][64 bit] 8bit+10bit+12bit
Encoding settings : cpuid=1050111 / frame-threads=5 / numa-pools=16,16 / wpp / no-pmode / no-pme / no-psnr / no-ssim / log-level=2 / input-csp=1 / input-res=1920x1080 / interlace=0 / total-frames=125280 / level-idc=0 / high-tier=1 / uhd-bd=0 / ref=4 / no-allow-non-conformance / no-repeat-headers / annexb / no-aud / no-hrd / info / hash=0 / no-temporal-layers / open-gop / min-keyint=23 / keyint=250 / bframes=4 / b-adapt=2 / b-pyramid / bframe-bias=0 / rc-lookahead=25 / lookahead-slices=4 / scenecut=40 / no-intra-refresh / ctu=64 / min-cu-size=8 / rect / no-amp / max-tu-size=32 / tu-inter-depth=1 / tu-intra-depth=1 / limit-tu=0 / rdoq-level=2 / dynamic-rd=0.00 / no-ssim-rd / signhide / no-tskip / nr-intra=0 / nr-inter=0 / no-constrained-intra / strong-intra-smoothing / max-merge=3 / limit-refs=3 / limit-modes / me=3 / subme=3 / merange=57 / temporal-mvp / weightp / no-weightb / no-analyze-src-pics / deblock=0:0 / sao / no-sao-non-deblock / rd=4 / no-early-skip / rskip / no-fast-intra / no-tskip-fast / no-cu-lossless / no-b-intra / rdpenalty=0 / psy-rd=2.00 / psy-rdoq=1.00 / no-rd-refine / analysis-reuse-mode=0 / no-lossless / cbqpoffs=0 / crqpoffs=0 / rc=crf / crf=20.0 / qcomp=0.60 / qpstep=4 / stats-write=0 / stats-read=0 / ipratio=1.40 / pbratio=1.30 / aq-mode=1 / aq-strength=1.00 / cutree / zone-count=0 / no-strict-cbr / qg-size=32 / no-rc-grain / qpmax=69 / qpmin=0 / no-const-vbv / sar=1 / overscan=0 / videoformat=5 / range=0 / colorprim=2 / transfer=2 / colormatrix=2 / chromaloc=0 / display-window=0 / max-cll=0,0 / min-luma=0 / max-luma=255 / log2-max-poc-lsb=8 / vui-timing-info / vui-hrd-info / slices=1 / opt-qp-pps / opt-ref-list-length-pps / no-multi-pass-opt-rps / scenecut-bias=0.05 / no-opt-cu-delta-qp / no-aq-motion / no-hdr / no-hdr-opt / no-dhdr10-opt / analysis-reuse-level=5 / scale-factor=0 / refine-intra=0 / refine-inter=0 / refine-mv=0 / no-limit-sao / ctu-info=0
Language : German
Default : Yes
Forced : No

Audio #1
ID : 2
Format : DTS
Format/Info : Digital Theater Systems
Mode : 16
Format settings, Endianness : Big
Codec ID : A_DTS
Duration : 1 h 27 min
Bit rate mode : Constant
Bit rate : 1 509 kb/s
Channel(s) : 6 channels
Channel positions : Front: L C R, Side: L R, LFE
Sampling rate : 48.0 kHz
Frame rate : 93.750 FPS (512 SPF)
Bit depth : 24 bits
Compression mode : Lossy
Stream size : 940 MiB (21%)
Language : German
Default : Yes
Forced : No

Audio #2
ID : 3
Format : DTS
Format/Info : Digital Theater Systems
Mode : 16
Format settings, Endianness : Big
Codec ID : A_DTS
Duration : 1 h 27 min
Bit rate mode : Constant
Bit rate : 1 509 kb/s
Channel(s) : 6 channels
Channel positions : Front: L C R, Side: L R, LFE
Sampling rate : 48.0 kHz
Frame rate : 93.750 FPS (512 SPF)
Bit depth : 24 bits
Compression mode : Lossy
Stream size : 940 MiB (21%)
Language : English
Default : No
Forced : No

Menu
00:00:00.000 : de:00:00:00.000
00:07:13.058 : de:00:07:13.058
00:15:04.320 : de:00:15:04.320
00:24:27.007 : de:00:24:27.007
00:32:08.927 : de:00:32:08.927
00:40:02.317 : de:00:40:02.317
00:47:22.381 : de:00:47:22.381
00:55:06.845 : de:00:55:06.845
01:02:26.242 : de:01:02:26.242
01:10:16.045 : de:01:10:16.045
01:16:37.426 : de:01:16:37.426
01:22:12.886 : de:01:22:12.886





A Beginner's Guide to Snuff (2016)


A Beginner's Guide to Snuff (2016)


A Beginner's Guide to Snuff (2016)


A Beginner's Guide to Snuff (2016)


A Beginner's Guide to Snuff (2016)