A Brave Heart: The Lizzie Velasquez Story (2015)

Posted By: Tutorial
A Brave Heart: The Lizzie Velasquez Story (2015)

A Brave Heart: The Lizzie Velasquez Story (2015)
WEB-DL | 1280 x 718 | .MKV/AVC @ 3896 Kbps | 1h 18mn | 2.39 GB
Audio: English AC-3 384 Kbps, 6 channels | Subs: English
Genre: Documentary, Biography, Family

A documentary following the life of Lizzie Velasquez, her triumphant journey to the other side of bullying, and her mission to inspire and empower a more positive online environment.
Director: Sara Hirsh Bordo (as Sara Bordo)
Writer: Michael Campo
Star: Lizzie Velasquez

More info: IMDB

General
Unique ID : 226248137329436718850879782702924289455 (0xAA35CE66B138FDF6B3C96255CA1DD5AF)
Complete name : A.Brave.Heart.2015.mkv
Format : Matroska
Format version : Version 4 / Version 2
File size : 2.39 GiB
Duration : 1h 18mn
Overall bit rate : 4 367 Kbps
Movie name : A Brave Heart: The Lizzie Velasquez Story
Encoded date : UTC 2016-05-25 20:59:35
Writing application : mkvmerge v9.1.0 ('Little Earthquakes') 64bit
Writing library : libebml v1.3.3 + libmatroska v1.4.4
DURATION : 01:13:59.504000000
NUMBER_OF_FRAMES : 1131
NUMBER_OF_BYTES : 53122
_STATISTICS_WRITING_APP : mkvmerge v9.1.0 ('Little Earthquakes') 64bit
_STATISTICS_WRITING_DATE_UTC : 2016-05-25 20:59:35
_STATISTICS_TAGS : BPS DURATION NUMBER_OF_FRAMES NUMBER_OF_BYTES

Video
ID : 1
Format : AVC
Format/Info : Advanced Video Codec
Format profile : High@L3.1
Format settings, CABAC : No
Format settings, ReFrames : 2 frames
Codec ID : V_MPEG4/ISO/AVC
Duration : 1h 18mn
Bit rate : 3 896 Kbps
Width : 1 280 pixels
Height : 718 pixels
Display aspect ratio : 16:9
Frame rate : 23.976 fps
Color space : YUV
Chroma subsampling : 4:2:0
Bit depth : 8 bits
Scan type : Progressive
Bits/(Pixel*Frame) : 0.177
Stream size : 2.13 GiB (89%)
Language : English
Default : Yes
Forced : No
Color primaries : BT.709-5, BT.1361, IEC 61966-2-4, SMPTE RP177
Transfer characteristics : BT.709-5, BT.1361
Matrix coefficients : BT.709-5, BT.1361, IEC 61966-2-4 709, SMPTE RP177

Audio
ID : 2
Format : AC-3
Format/Info : Audio Coding 3
Mode extension : CM (complete main)
Codec ID : A_AC3
Duration : 1h 18mn
Bit rate mode : Constant
Bit rate : 384 Kbps
Channel(s) : 6 channels
Channel positions : Front: L C R, Side: L R, LFE
Sampling rate : 48.0 KHz
Bit depth : 16 bits
Compression mode : Lossy
Stream size : 215 MiB (9%)
Language : English
Default : Yes
Forced : No

Text
ID : 3
Format : UTF-8
Codec ID : S_TEXT/UTF8
Codec ID/Info : UTF-8 Plain Text
Title : Spanish
Language : Spanish
Default : No
Forced : No
Screenshots

A Brave Heart: The Lizzie Velasquez Story (2015)

A Brave Heart: The Lizzie Velasquez Story (2015)

Welcome to my blog - daily update!

A Brave Heart: The Lizzie Velasquez Story (2015)