A Bad Moms Christmas (2017)

Posted By: Without
1080p (FullHD) / BDRip IMDb
A Bad Moms Christmas (2017)

A Bad Moms Christmas (2017)
BDRip | MKV | 720x300 | AVC@754 kb/s | English AAC@116 kb/s | 2 channels | 1 h 44 min | 652 MB
BRRip | AVI | 720x304 | XviD@1446 kb/s | English AC3@384 kb/s | 6 channels | 1 h 44 min | 1.34 GB
BDRip 720p | MKV | 1280x536 | AVC@5967 kb/s | English DTS@1509 kb/s | 6 channels | 1 h 44 min | 5.46 GB
BDRip 1080p | MKV | 1920x800 | AVC@8961 kb/s | English DTS@1509 kb/s | 6 channels | 1 h 44 min | 7.65 GB
Genre: Adventure, Comedy

As their own mothers drop in unexpectedly, our three under-appreciated and over-burdened moms rebel against the challenges and expectations of the Super Bowl for mothers: Christmas.



General
A.Bad.Moms.Christmas.2017.BDRip.x264-DRONES.mkv
Format : Matroska
Format version : Version 4 / Version 2
File size : 652 MiB
Duration : 1 h 44 min
Overall bit rate : 872 kb/s
Encoded date : UTC 2018-01-25 01:39:15
Writing application : mkvmerge v8.3.0 ('Over the Horizon') 64bit
Writing library : libebml v1.3.1 + libmatroska v1.4.2

Video
ID : 1
Format : AVC
Format/Info : Advanced Video Codec
Format profile : High@L3.1
Format settings, CABAC : Yes
Format settings, ReFrames : 5 frames
Codec ID : V_MPEG4/ISO/AVC
Duration : 1 h 44 min
Bit rate : 754 kb/s
Width : 720 pixels
Height : 300 pixels
Display aspect ratio : 2.40:1
Frame rate mode : Constant
Frame rate : 23.976 FPS
Color space : YUV
Chroma subsampling : 4:2:0
Bit depth : 8 bits
Scan type : Progressive
Bits/(Pixel*Frame) : 0.146
Stream size : 564 MiB (86%)
Title : X264
Writing library : x264 core 155 r2901 7d0ff22
Encoding settings : cabac=1 / ref=5 / deblock=1:-2:-2 / analyse=0x3:0x113 / me=hex / subme=8 / psy=1 / psy_rd=0.90:0.00 / mixed_ref=1 / me_range=16 / chroma_me=1 / trellis=2 / 8x8dct=1 / cqm=0 / deadzone=21,11 / fast_pskip=1 / chroma_qp_offset=-2 / threads=9 / lookahead_threads=1 / sliced_threads=0 / nr=0 / decimate=1 / interlaced=0 / bluray_compat=0 / constrained_intra=0 / bframes=3 / b_pyramid=2 / b_adapt=1 / b_bias=0 / direct=3 / weightb=1 / open_gop=0 / weightp=2 / keyint=250 / keyint_min=23 / scenecut=40 / intra_refresh=0 / rc_lookahead=50 / rc=crf / mbtree=1 / crf=19.0 / qcomp=0.60 / qpmin=0 / qpmax=69 / qpstep=4 / ip_ratio=1.40 / aq=1:1.00
Language : English
Default : Yes
Forced : No
Color range : Limited
Matrix coefficients : BT.709

Audio
ID : 2
Format : AAC
Format/Info : Advanced Audio Codec
Format profile : LC
Codec ID : A_AAC
Duration : 1 h 44 min
Bit rate : 116 kb/s
Channel(s) : 2 channels
Channel positions : Front: L R
Sampling rate : 48.0 kHz
Frame rate : 46.875 FPS (1024 spf)
Compression mode : Lossy
Stream size : 86.5 MiB (13%)
Language : English
Default : Yes
Forced : No

Menu
00:00:00.000 : en:00:00:00.000
00:05:12.687 : en:00:05:12.687
00:07:12.766 : en:00:07:12.766
00:10:15.782 : en:00:10:15.782
00:13:54.333 : en:00:13:54.333
00:19:20.659 : en:00:19:20.659
00:23:15.352 : en:00:23:15.352
00:31:03.111 : en:00:31:03.111
00:36:33.483 : en:00:36:33.483
00:40:16.372 : en:00:40:16.372
00:44:32.003 : en:00:44:32.003
00:49:03.774 : en:00:49:03.774
00:54:06.118 : en:00:54:06.118
00:59:16.845 : en:00:59:16.845
01:03:12.914 : en:01:03:12.914
01:08:07.959 : en:01:08:07.959
01:15:07.503 : en:01:15:07.503
01:21:38.936 : en:01:21:38.936
01:27:31.705 : en:01:27:31.705
01:36:17.188 : en:01:36:17.188

General
A Bad Moms Christmas.2017.BRRip.XviD.AC3-EVO.avi
Format : AVI
Format/Info : Audio Video Interleave
File size : 1.34 GiB
Duration : 1 h 44 min
Overall bit rate : 1 839 kb/s
Writing library : VirtualDub build 32593/release

Video
ID : 0
Format : MPEG-4 Visual
Format profile : Advanced Simple@L5
Format settings, BVOP : 2
Format settings, QPel : No
Format settings, GMC : No warppoints
Format settings, Matrix : Default (H.263)
Muxing mode : Packed bitstream
Codec ID : XVID
Codec ID/Hint : XviD
Duration : 1 h 44 min
Bit rate : 1 446 kb/s
Width : 720 pixels
Height : 304 pixels
Display aspect ratio : 2.35:1
Frame rate : 23.976 (24000/1001) FPS
Color space : YUV
Chroma subsampling : 4:2:0
Bit depth : 8 bits
Scan type : Progressive
Compression mode : Lossy
Bits/(Pixel*Frame) : 0.275
Stream size : 1.06 GiB (79%)
Writing library : XviD 66

Audio
ID : 1
Format : AC-3
Format/Info : Audio Coding 3
Mode extension : CM (complete main)
Format settings, Endianness : Big
Codec ID : 2000
Duration : 1 h 44 min
Bit rate mode : Constant
Bit rate : 384 kb/s
Channel(s) : 6 channels
Channel positions : Front: L C R, Side: L R, LFE
Sampling rate : 48.0 kHz
Frame rate : 31.250 FPS (1536 spf)
Bit depth : 16 bits
Compression mode : Lossy
Stream size : 287 MiB (21%)
Alignment : Aligned on interleaves
Interleave, duration : 42 ms (1.00 video frame)
Interleave, preload duration : 512 ms

General
A.Bad.Moms.Christmas.2017.720p.BluRay.x264-DRONES.mkv
Format : Matroska
Format version : Version 4 / Version 2
File size : 5.46 GiB
Duration : 1 h 44 min
Overall bit rate : 7 478 kb/s
Encoded date : UTC 2018-01-25 02:18:13
Writing application : mkvmerge v8.3.0 ('Over the Horizon') 64bit
Writing library : libebml v1.3.1 + libmatroska v1.4.2

Video
ID : 1
Format : AVC
Format/Info : Advanced Video Codec
Format profile : High@L4.1
Format settings, CABAC : Yes
Format settings, ReFrames : 5 frames
Codec ID : V_MPEG4/ISO/AVC
Duration : 1 h 44 min
Bit rate : 5 967 kb/s
Width : 1 280 pixels
Height : 536 pixels
Display aspect ratio : 2.40:1
Frame rate mode : Constant
Frame rate : 23.976 FPS
Color space : YUV
Chroma subsampling : 4:2:0
Bit depth : 8 bits
Scan type : Progressive
Bits/(Pixel*Frame) : 0.363
Stream size : 4.36 GiB (80%)
Writing library : x264 core 155 r2901 7d0ff22
Encoding settings : cabac=1 / ref=5 / deblock=1:0:0 / analyse=0x3:0x133 / me=umh / subme=7 / psy=1 / psy_rd=1.00:0.00 / mixed_ref=1 / me_range=16 / chroma_me=1 / trellis=1 / 8x8dct=1 / cqm=0 / deadzone=21,11 / fast_pskip=0 / chroma_qp_offset=-2 / threads=17 / lookahead_threads=2 / sliced_threads=0 / nr=0 / decimate=1 / interlaced=0 / bluray_compat=0 / constrained_intra=0 / bframes=3 / b_pyramid=2 / b_adapt=1 / b_bias=0 / direct=1 / weightb=1 / open_gop=0 / weightp=2 / keyint=250 / keyint_min=23 / scenecut=40 / intra_refresh=0 / rc_lookahead=40 / rc=2pass / mbtree=1 / bitrate=5967 / ratetol=1.0 / qcomp=0.60 / qpmin=0 / qpmax=69 / qpstep=4 / cplxblur=20.0 / qblur=0.5 / ip_ratio=1.40 / aq=1:1.00
Language : English
Default : Yes
Forced : No

Audio
ID : 2
Format : DTS
Format/Info : Digital Theater Systems
Mode : 16
Format settings, Endianness : Big
Codec ID : A_DTS
Duration : 1 h 44 min
Bit rate mode : Constant
Bit rate : 1 509 kb/s
Channel(s) : 6 channels
Channel positions : Front: L C R, Side: L R, LFE
Sampling rate : 48.0 kHz
Frame rate : 93.750 FPS (512 spf)
Bit depth : 24 bits
Compression mode : Lossy
Stream size : 1.10 GiB (20%)
Language : English
Default : Yes
Forced : No

Menu
00:00:00.000 : en:00:00:00.000
00:05:12.687 : en:00:05:12.687
00:07:12.766 : en:00:07:12.766
00:10:15.782 : en:00:10:15.782
00:13:54.333 : en:00:13:54.333
00:19:20.659 : en:00:19:20.659
00:23:15.352 : en:00:23:15.352
00:31:03.111 : en:00:31:03.111
00:36:33.483 : en:00:36:33.483
00:40:16.372 : en:00:40:16.372
00:44:32.003 : en:00:44:32.003
00:49:03.774 : en:00:49:03.774
00:54:06.118 : en:00:54:06.118
00:59:16.845 : en:00:59:16.845
01:03:12.914 : en:01:03:12.914
01:08:07.959 : en:01:08:07.959
01:15:07.503 : en:01:15:07.503
01:21:38.936 : en:01:21:38.936
01:27:31.705 : en:01:27:31.705
01:36:17.188 : en:01:36:17.188

General
A.Bad.Moms.Christmas.2017.1080p.BluRay.x264-DRONES.mkv
Format : Matroska
Format version : Version 4 / Version 2
File size : 7.65 GiB
Duration : 1 h 44 min
Overall bit rate : 10.5 Mb/s
Encoded date : UTC 2018-01-25 03:08:49
Writing application : mkvmerge v8.3.0 ('Over the Horizon') 64bit
Writing library : libebml v1.3.1 + libmatroska v1.4.2

Video
ID : 1
Format : AVC
Format/Info : Advanced Video Codec
Format profile : High@L4.1
Format settings, CABAC : Yes
Format settings, ReFrames : 5 frames
Codec ID : V_MPEG4/ISO/AVC
Duration : 1 h 44 min
Bit rate : 8 961 kb/s
Width : 1 920 pixels
Height : 800 pixels
Display aspect ratio : 2.40:1
Frame rate mode : Constant
Frame rate : 23.976 FPS
Color space : YUV
Chroma subsampling : 4:2:0
Bit depth : 8 bits
Scan type : Progressive
Bits/(Pixel*Frame) : 0.243
Stream size : 6.55 GiB (86%)
Writing library : x264 core 155 r2901 7d0ff22
Encoding settings : cabac=1 / ref=5 / deblock=1:0:0 / analyse=0x3:0x133 / me=umh / subme=7 / psy=1 / psy_rd=1.00:0.00 / mixed_ref=1 / me_range=16 / chroma_me=1 / trellis=1 / 8x8dct=1 / cqm=0 / deadzone=21,11 / fast_pskip=0 / chroma_qp_offset=-2 / threads=25 / lookahead_threads=4 / sliced_threads=0 / nr=0 / decimate=1 / interlaced=0 / bluray_compat=0 / constrained_intra=0 / bframes=3 / b_pyramid=2 / b_adapt=1 / b_bias=0 / direct=1 / weightb=1 / open_gop=0 / weightp=2 / keyint=250 / keyint_min=23 / scenecut=40 / intra_refresh=0 / rc_lookahead=40 / rc=2pass / mbtree=1 / bitrate=8961 / ratetol=1.0 / qcomp=0.60 / qpmin=0 / qpmax=69 / qpstep=4 / cplxblur=20.0 / qblur=0.5 / ip_ratio=1.40 / aq=1:1.00
Language : English
Default : Yes
Forced : No

Audio
ID : 2
Format : DTS
Format/Info : Digital Theater Systems
Mode : 16
Format settings, Endianness : Big
Codec ID : A_DTS
Duration : 1 h 44 min
Bit rate mode : Constant
Bit rate : 1 509 kb/s
Channel(s) : 6 channels
Channel positions : Front: L C R, Side: L R, LFE
Sampling rate : 48.0 kHz
Frame rate : 93.750 FPS (512 spf)
Bit depth : 24 bits
Compression mode : Lossy
Stream size : 1.10 GiB (14%)
Language : English
Default : Yes
Forced : No

Menu
00:00:00.000 : en:00:00:00.000
00:05:12.687 : en:00:05:12.687
00:07:12.766 : en:00:07:12.766
00:10:15.782 : en:00:10:15.782
00:13:54.333 : en:00:13:54.333
00:19:20.659 : en:00:19:20.659
00:23:15.352 : en:00:23:15.352
00:31:03.111 : en:00:31:03.111
00:36:33.483 : en:00:36:33.483
00:40:16.372 : en:00:40:16.372
00:44:32.003 : en:00:44:32.003
00:49:03.774 : en:00:49:03.774
00:54:06.118 : en:00:54:06.118
00:59:16.845 : en:00:59:16.845
01:03:12.914 : en:01:03:12.914
01:08:07.959 : en:01:08:07.959
01:15:07.503 : en:01:15:07.503
01:21:38.936 : en:01:21:38.936
01:27:31.705 : en:01:27:31.705
01:36:17.188 : en:01:36:17.188


BDRip Screenshots

A Bad Moms Christmas (2017)

A Bad Moms Christmas (2017)

A Bad Moms Christmas (2017)


BRRip Screenshots

A Bad Moms Christmas (2017)

A Bad Moms Christmas (2017)

A Bad Moms Christmas (2017)


BDRip 720p Screenshots

A Bad Moms Christmas (2017)

A Bad Moms Christmas (2017)

A Bad Moms Christmas (2017)


BDRip 1080p Screenshots

A Bad Moms Christmas (2017)

A Bad Moms Christmas (2017)

A Bad Moms Christmas (2017)


Come Visit My Blog (•‿•)