A Bad Moms Christmas (2017)

Posted By: Without
1080p (FullHD) / BluRay Remux IMDb
A Bad Moms Christmas (2017)

A Bad Moms Christmas (2017)
BD-Remux | MKV | 1920x1080 | AVC@32.1 Mb/s | English DTS-HD MA@2591 kb/s
Subs: English, Spanish | 6 channels | 1 h 44 min | 25.4 GB
Genre: Adventure, Comedy

As their own mothers drop in unexpectedly, our three under-appreciated and over-burdened moms rebel against the challenges and expectations of the Super Bowl for mothers: Christmas.



General
A.Bad.Moms.Christmas.2017.BluRay.1080p.DTS-HD.MA.5.1.AVC.REMUX-FraMeSToR.mkv
Format : Matroska
Format version : Version 4 / Version 2
File size : 25.4 GiB
Duration : 1 h 44 min
Overall bit rate mode : Variable
Overall bit rate : 34.8 Mb/s
Movie name : A Bad Moms Christmas
Encoded date : UTC 2018-01-29 11:32:12
Writing application : mkvmerge v20.0.0 ('I Am The Sun') 64-bit
Writing library : libebml v1.3.5 + libmatroska v1.4.8

Video
ID : 1
Format : AVC
Format/Info : Advanced Video Codec
Format profile : High@L4.1
Format settings, CABAC : Yes
Format settings, ReFrames : 4 frames
Codec ID : V_MPEG4/ISO/AVC
Duration : 1 h 44 min
Bit rate mode : Variable
Bit rate : 32.1 Mb/s
Maximum bit rate : 37.0 Mb/s
Width : 1 920 pixels
Height : 1 080 pixels
Display aspect ratio : 16:9
Frame rate mode : Constant
Frame rate : 23.976 (24000/1001) FPS
Color space : YUV
Chroma subsampling : 4:2:0
Bit depth : 8 bits
Scan type : Progressive
Bits/(Pixel*Frame) : 0.645
Stream size : 23.4 GiB (92%)
Default : Yes
Forced : No

Audio
ID : 2
Format : DTS
Format/Info : Digital Theater Systems
Format profile : MA / Core
Mode : 16
Format settings, Endianness : Big
Codec ID : A_DTS
Duration : 1 h 44 min
Bit rate mode : Variable / Constant
Bit rate : 2 591 kb/s / 1 509 kb/s
Channel(s) : 6 channels
Channel positions : Front: L C R, Side: L R, LFE
Sampling rate : 48.0 kHz
Frame rate : 93.750 FPS (512 spf)
Bit depth : 24 bits
Compression mode : Lossless / Lossy
Stream size : 1.89 GiB (7%)
Title : DTS-HD MA 5.1
Language : English
Default : Yes
Forced : No

Text #1
ID : 3
Format : PGS
Codec ID : S_HDMV/PGS
Codec ID/Info : Picture based subtitle format used on BDs/HD-DVDs
Duration : 1 h 37 min
Bit rate : 57.5 kb/s
Count of elements : 3597
Stream size : 40.0 MiB (0%)
Title : English (SDH)
Language : English
Default : No
Forced : No

Text #2
ID : 4
Format : PGS
Codec ID : S_HDMV/PGS
Codec ID/Info : Picture based subtitle format used on BDs/HD-DVDs
Duration : 1 h 43 min
Bit rate : 44.7 kb/s
Count of elements : 3620
Stream size : 33.0 MiB (0%)
Title : Spanish (Latin American)
Language : Spanish
Default : No
Forced : No

Menu
00:00:00.000 : en:Chapter 01
00:05:12.687 : en:Chapter 02
00:07:12.766 : en:Chapter 03
00:10:15.782 : en:Chapter 04
00:13:54.333 : en:Chapter 05
00:19:20.659 : en:Chapter 06
00:23:15.352 : en:Chapter 07
00:31:03.111 : en:Chapter 08
00:36:33.483 : en:Chapter 09
00:40:16.372 : en:Chapter 10
00:44:32.003 : en:Chapter 11
00:49:03.774 : en:Chapter 12
00:54:06.118 : en:Chapter 13
00:59:16.845 : en:Chapter 14
01:03:12.914 : en:Chapter 15
01:08:07.959 : en:Chapter 16
01:15:07.503 : en:Chapter 17
01:21:38.936 : en:Chapter 18
01:27:31.705 : en:Chapter 19
01:36:17.188 : en:Chapter 20


Screenshots

A Bad Moms Christmas (2017)

A Bad Moms Christmas (2017)

A Bad Moms Christmas (2017)

A Bad Moms Christmas (2017)


Come Visit My Blog (•‿•)