A Street Cat Named Bob (2016)

Posted By: Without
A Street Cat Named Bob (2016)

A Street Cat Named Bob (2016)
BDRip | MKV | 720x300 | AVC@866 Kbps | English AAC@132 Kbps | 2 channels | 1 h 42 min | 736 MB
BRRip | AVI | 720x302 | XviD@1582 kb/s | English AC3@448 kb/s | 6 channels | 1 h 42 min | 1.46 GB
BDRip 720p | MKV | 1280x536 | AVC@6105 kb/s | English DTS@1509 kb/s | 6 channels | 1 h 42 min | 5.46 GB
BDRip 1080p | MKV | 1920x808 | AVC@9559 kb/s | English DTS@1509 kb/s | 6 channels | 1 h 42 min | 7.94 GB
BRRip 720p | MKV | 1280x536 | HEVC@2388 kb/s | English DTS@1509 kb/s | 6 channels | 1 h 42 min | 2.85 GB
Genre: Biography, Comedy, Drama

Based on the international best selling book. The true feel good story of how James Bowen, a busker and recovering drug addict, had his life transformed when he met a stray ginger cat.



General
Unique ID : 223008730244394662380638207195689380766 (0xA7C5EB4D01274934B74C636BBC59EB9E)
Complete name : A.Street.Cat.Named.Bob.2016.BDRip.x264-CADAVER\a.street.cat.named.bob.2016.bdrip.x264-cadaver.mkv
Format : Matroska
Format version : Version 4 / Version 2
File size : 736 MiB
Duration : 1 h 42 min
Overall bit rate : 1 001 kb/s
Encoded date : UTC 2017-02-24 09:34:18
Writing application : mkvmerge v9.9.0 ('Pick Up') 64bit
Writing library : libebml v1.3.4 + libmatroska v1.4.5

Video
ID : 2
Format : AVC
Format/Info : Advanced Video Codec
Format profile : High@L3.1
Format settings, CABAC : Yes
Format settings, ReFrames : 5 frames
Codec ID : V_MPEG4/ISO/AVC
Duration : 1 h 42 min
Width : 720 pixels
Height : 300 pixels
Display aspect ratio : 2.40:1
Frame rate mode : Constant
Frame rate : 23.976 (24000/1001) FPS
Color space : YUV
Chroma subsampling : 4:2:0
Bit depth : 8 bits
Scan type : Progressive
Writing library : x264 core 148 r2744 b97ae06
Encoding settings : cabac=1 / ref=5 / deblock=1:-3:-3 / analyse=0x3:0x113 / me=hex / subme=8 / psy=1 / psy_rd=1.00:0.15 / mixed_ref=1 / me_range=16 / chroma_me=1 / trellis=2 / 8x8dct=1 / cqm=0 / deadzone=21,11 / fast_pskip=1 / chroma_qp_offset=-3 / threads=6 / lookahead_threads=1 / sliced_threads=0 / nr=0 / decimate=1 / interlaced=0 / bluray_compat=0 / constrained_intra=0 / bframes=3 / b_pyramid=2 / b_adapt=1 / b_bias=0 / direct=3 / weightb=1 / open_gop=0 / weightp=2 / keyint=240 / keyint_min=23 / scenecut=40 / intra_refresh=0 / rc_lookahead=50 / rc=crf / mbtree=1 / crf=19.0 / qcomp=0.60 / qpmin=0 / qpmax=69 / qpstep=4 / vbv_maxrate=17500 / vbv_bufsize=17500 / crf_max=0.0 / nal_hrd=none / filler=0 / ip_ratio=1.40 / aq=1:0.60
Default : Yes
Forced : No
Color range : Limited
Matrix coefficients : BT.709

Audio
ID : 1
Format : AAC
Format/Info : Advanced Audio Codec
Format profile : LC
Codec ID : A_AAC
Duration : 1 h 42 min
Channel(s) : 2 channels
Channel positions : Front: L R
Sampling rate : 48.0 kHz
Frame rate : 46.875 FPS (1024 spf)
Compression mode : Lossy
Delay relative to video : 9 ms
Language : English
Default : Yes
Forced : No

Menu
00:00:00.000 : en:00:00:00.000
00:06:55.165 : en:00:06:55.165
00:11:37.071 : en:00:11:37.071
00:18:52.882 : en:00:18:52.882
00:28:30.250 : en:00:28:30.250
00:31:36.895 : en:00:31:36.895
00:37:52.061 : en:00:37:52.061
00:45:03.242 : en:00:45:03.242
00:49:39.810 : en:00:49:39.810
00:54:35.063 : en:00:54:35.063
01:03:16.001 : en:01:03:16.001
01:07:13.821 : en:01:07:13.821
01:11:18.774 : en:01:11:18.774
01:19:17.503 : en:01:19:17.503
01:27:15.897 : en:01:27:15.897
01:34:30.665 : en:01:34:30.665

General
Complete name : A.Street.Cat.Named.Bob.2016.BRRip.XviD.AC3-RARBG\A.Street.Cat.Named.Bob.2016.BRRip.XviD.AC3-RARBG.avi
Format : AVI
Format/Info : Audio Video Interleave
File size : 1.46 GiB
Duration : 1 h 42 min
Overall bit rate : 2 039 kb/s
Movie name : RARBG.COM - A.Street.Cat.Named.Bob.2016.BRRip.XviD.AC3-RARBG
Writing application : Lavf56.40.101
Writing library : VirtualDub build 35491/release
Comment : RARBG.COM - A.Street.Cat.Named.Bob.2016.BRRip.XviD.AC3-RARBG

Video
ID : 0
Format : MPEG-4 Visual
Format profile : Simple@L5
Format settings, BVOP : No
Format settings, QPel : No
Format settings, GMC : No warppoints
Format settings, Matrix : Default (H.263)
Codec ID : XVID
Codec ID/Hint : XviD
Duration : 1 h 42 min
Bit rate : 1 582 kb/s
Width : 720 pixels
Height : 302 pixels
Display aspect ratio : 2.40:1
Frame rate : 23.976 (24000/1001) FPS
Color space : YUV
Chroma subsampling : 4:2:0
Bit depth : 8 bits
Scan type : Progressive
Compression mode : Lossy
Bits/(Pixel*Frame) : 0.303
Stream size : 1.14 GiB (78%)
Writing library : Lavc56.60.100

Audio
ID : 1
Format : AC-3
Format/Info : Audio Coding 3
Mode extension : CM (complete main)
Format settings, Endianness : Big
Codec ID : 2000
Duration : 1 h 42 min
Bit rate mode : Constant
Bit rate : 448 kb/s
Channel(s) : 6 channels
Channel positions : Front: L C R, Side: L R, LFE
Sampling rate : 48.0 kHz
Frame rate : 31.250 FPS (1536 spf)
Bit depth : 16 bits
Compression mode : Lossy
Stream size : 329 MiB (22%)
Alignment : Aligned on interleaves
Interleave, duration : 42 ms (1.00 video frame)
Interleave, preload duration : 512 ms

General
Unique ID : 237823129063953605530584386678315699550 (0xB2EB118E039EE714ADA856BFD2A24D5E)
Complete name : A.Street.Cat.Named.Bob.2016.720p.Bluray.x264-CADAVER[rarbg]\a.street.cat.named.bob.2016.720p.bluray.x264-cadaver.mkv
Format : Matroska
Format version : Version 4 / Version 2
File size : 5.47 GiB
Duration : 1 h 42 min
Overall bit rate : 7 612 kb/s
Encoded date : UTC 2017-02-24 10:32:28
Writing application : mkvmerge v9.9.0 ('Pick Up') 64bit
Writing library : libebml v1.3.4 + libmatroska v1.4.5

Video
ID : 2
Format : AVC
Format/Info : Advanced Video Codec
Format profile : High@L4.1
Format settings, CABAC : Yes
Format settings, ReFrames : 5 frames
Codec ID : V_MPEG4/ISO/AVC
Duration : 1 h 42 min
Bit rate : 6 105 kb/s
Width : 1 280 pixels
Height : 536 pixels
Display aspect ratio : 2.40:1
Frame rate mode : Constant
Frame rate : 23.976 (24000/1001) FPS
Color space : YUV
Chroma subsampling : 4:2:0
Bit depth : 8 bits
Scan type : Progressive
Bits/(Pixel*Frame) : 0.371
Stream size : 4.27 GiB (78%)
Writing library : x264 core 148 r2744 b97ae06
Encoding settings : cabac=1 / ref=5 / deblock=1:-3:-3 / analyse=0x3:0x133 / me=umh / subme=8 / psy=1 / psy_rd=1.00:0.00 / mixed_ref=1 / me_range=16 / chroma_me=1 / trellis=1 / 8x8dct=1 / cqm=0 / deadzone=21,11 / fast_pskip=0 / chroma_qp_offset=-2 / threads=6 / lookahead_threads=1 / sliced_threads=0 / nr=0 / decimate=1 / interlaced=0 / bluray_compat=0 / constrained_intra=0 / bframes=3 / b_pyramid=2 / b_adapt=1 / b_bias=0 / direct=3 / weightb=1 / open_gop=0 / weightp=2 / keyint=240 / keyint_min=23 / scenecut=40 / intra_refresh=0 / rc_lookahead=50 / rc=2pass / mbtree=1 / bitrate=6105 / ratetol=1.0 / qcomp=0.60 / qpmin=0 / qpmax=69 / qpstep=4 / cplxblur=20.0 / qblur=0.5 / vbv_maxrate=62500 / vbv_bufsize=78125 / nal_hrd=none / filler=0 / ip_ratio=1.40 / aq=1:1.00
Default : Yes
Forced : No

Audio
ID : 1
Format : DTS
Format/Info : Digital Theater Systems
Mode : 16
Format settings, Endianness : Big
Codec ID : A_DTS
Duration : 1 h 42 min
Bit rate mode : Constant
Bit rate : 1 509 kb/s
Channel(s) : 6 channels
Channel positions : Front: L C R, Side: L R, LFE
Sampling rate : 48.0 kHz
Frame rate : 93.750 FPS (512 spf)
Bit depth : 24 bits
Compression mode : Lossy
Stream size : 1.08 GiB (20%)
Language : English
Default : Yes
Forced : No

Menu
00:00:00.000 : en:00:00:00.000
00:06:55.165 : en:00:06:55.165
00:11:37.071 : en:00:11:37.071
00:18:52.882 : en:00:18:52.882
00:28:30.250 : en:00:28:30.250
00:31:36.895 : en:00:31:36.895
00:37:52.061 : en:00:37:52.061
00:45:03.242 : en:00:45:03.242
00:49:39.810 : en:00:49:39.810
00:54:35.063 : en:00:54:35.063
01:03:16.001 : en:01:03:16.001
01:07:13.821 : en:01:07:13.821
01:11:18.774 : en:01:11:18.774
01:19:17.503 : en:01:19:17.503
01:27:15.897 : en:01:27:15.897
01:34:30.665 : en:01:34:30.665

General
Unique ID : 241596288378507003253695500158169324964 (0xB5C1C0ABF90F581E9E6A0FFFF19D1DA4)
Complete name : A.Street.Cat.Named.Bob.2016.1080p.Bluray.x264-CADAVER[EtHD]\a.street.cat.named.bob.2016.1080p.bluray.x264-cadaver[EtHD].mkv
Format : Matroska
Format version : Version 4 / Version 2
File size : 7.94 GiB
Duration : 1 h 42 min
Overall bit rate : 11.1 Mb/s
Encoded date : UTC 2017-02-24 14:01:28
Writing application : mkvmerge v9.9.0 ('Pick Up') 64bit
Writing library : libebml v1.3.4 + libmatroska v1.4.5

Video
ID : 2
Format : AVC
Format/Info : Advanced Video Codec
Format profile : High@L4.1
Format settings, CABAC : Yes
Format settings, ReFrames : 5 frames
Codec ID : V_MPEG4/ISO/AVC
Duration : 1 h 42 min
Bit rate : 9 559 kb/s
Width : 1 920 pixels
Height : 808 pixels
Display aspect ratio : 2.40:1
Frame rate mode : Constant
Frame rate : 23.976 (24000/1001) FPS
Color space : YUV
Chroma subsampling : 4:2:0
Bit depth : 8 bits
Scan type : Progressive
Bits/(Pixel*Frame) : 0.257
Stream size : 6.70 GiB (84%)
Writing library : x264 core 148 r2744 b97ae06
Encoding settings : cabac=1 / ref=5 / deblock=1:-3:-3 / analyse=0x3:0x133 / me=umh / subme=8 / psy=1 / psy_rd=1.00:0.00 / mixed_ref=1 / me_range=16 / chroma_me=1 / trellis=1 / 8x8dct=1 / cqm=0 / deadzone=21,11 / fast_pskip=0 / chroma_qp_offset=-2 / threads=6 / lookahead_threads=1 / sliced_threads=0 / nr=0 / decimate=1 / interlaced=0 / bluray_compat=0 / constrained_intra=0 / bframes=3 / b_pyramid=2 / b_adapt=1 / b_bias=0 / direct=3 / weightb=1 / open_gop=0 / weightp=2 / keyint=240 / keyint_min=23 / scenecut=40 / intra_refresh=0 / rc_lookahead=50 / rc=2pass / mbtree=1 / bitrate=9559 / ratetol=1.0 / qcomp=0.60 / qpmin=0 / qpmax=69 / qpstep=4 / cplxblur=20.0 / qblur=0.5 / vbv_maxrate=62500 / vbv_bufsize=78125 / nal_hrd=none / filler=0 / ip_ratio=1.40 / aq=1:1.00
Default : Yes
Forced : No

Audio
ID : 1
Format : DTS
Format/Info : Digital Theater Systems
Mode : 16
Format settings, Endianness : Big
Codec ID : A_DTS
Duration : 1 h 42 min
Bit rate mode : Constant
Bit rate : 1 509 kb/s
Channel(s) : 6 channels
Channel positions : Front: L C R, Side: L R, LFE
Sampling rate : 48.0 kHz
Frame rate : 93.750 FPS (512 spf)
Bit depth : 24 bits
Compression mode : Lossy
Stream size : 1.08 GiB (14%)
Language : English
Default : Yes
Forced : No

Menu
00:00:00.000 : en:00:00:00.000
00:06:55.165 : en:00:06:55.165
00:11:37.071 : en:00:11:37.071
00:18:52.882 : en:00:18:52.882
00:28:30.250 : en:00:28:30.250
00:31:36.895 : en:00:31:36.895
00:37:52.061 : en:00:37:52.061
00:45:03.242 : en:00:45:03.242
00:49:39.810 : en:00:49:39.810
00:54:35.063 : en:00:54:35.063
01:03:16.001 : en:01:03:16.001
01:07:13.821 : en:01:07:13.821
01:11:18.774 : en:01:11:18.774
01:19:17.503 : en:01:19:17.503
01:27:15.897 : en:01:27:15.897
01:34:30.665 : en:01:34:30.665

Video
ID : 1
Format : HEVC
Format/Info : High Efficiency Video Coding
Format profile : Main@L3.1@Main
Codec ID : V_MPEGH/ISO/HEVC
Duration : 1 h 42 min
Bit rate : 2 388 kb/s
Width : 1 280 pixels
Height : 536 pixels
Display aspect ratio : 2.40:1
Frame rate mode : Constant
Frame rate : 23.976 (24000/1001) FPS
Color space : YUV
Chroma subsampling : 4:2:0
Bit depth : 8 bits
Bits/(Pixel*Frame) : 0.145
Stream size : 1.71 GiB (60%)
Writing library : x265 2.1:[Windows][GCC 5.4.0][64 bit] 8bit
Encoding settings : wpp / ctu=64 / min-cu-size=8 / max-tu-size=32 / tu-intra-depth=1 / tu-inter-depth=1 / me=1 / subme=2 / merange=57 / no-rect / no-amp / max-merge=2 / temporal-mvp / early-skip / rskip / rdpenalty=0 / no-tskip / no-tskip-fast / strong-intra-smoothing / no-lossless / no-cu-lossless / no-constrained-intra / fast-intra / open-gop / no-temporal-layers / interlace=0 / keyint=240 / min-keyint=24 / scenecut=40 / rc-lookahead=15 / lookahead-slices=0 / bframes=4 / bframe-bias=0 / b-adapt=0 / ref=2 / limit-refs=3 / no-limit-modes / weightp / no-weightb / aq-mode=1 / qg-size=32 / aq-strength=1.00 / cbqpoffs=0 / crqpoffs=0 / rd=2 / psy-rd=2.00 / rdoq-level=0 / psy-rdoq=0.00 / log2-max-poc-lsb=8 / no-rd-refine / signhide / deblock=0:0 / sao / no-sao-non-deblock / b-pyramid / cutree / no-intra-refresh / rc=abr / bitrate=2500 / qcomp=0.60 / qpmin=0 / qpmax=69 / qpstep=4 / ipratio=1.40 / pbratio=1.30
Default : Yes
Forced : No
Color range : Limited
Color primaries : BT.709
Transfer characteristics : BT.709
Matrix coefficients : BT.709

Audio
ID : 2
Format : DTS
Format/Info : Digital Theater Systems
Mode : 16
Format settings, Endianness : Big
Codec ID : A_DTS
Duration : 1 h 42 min
Bit rate mode : Constant
Bit rate : 1 509 kb/s
Channel(s) : 6 channels
Channel positions : Front: L C R, Side: L R, LFE
Sampling rate : 48.0 kHz
Frame rate : 93.750 FPS (512 spf)
Bit depth : 24 bits
Compression mode : Lossy
Stream size : 1.08 GiB (38%)
Title : Surround
Language : English
Default : Yes
Forced : No

Menu
00:00:00.000 : :00:00:00.000
00:06:55.165 : :00:06:55.165
00:11:37.071 : :00:11:37.071
00:18:52.882 : :00:18:52.882
00:28:30.250 : :00:28:30.250
00:31:36.895 : :00:31:36.895
00:37:52.061 : :00:37:52.061
00:45:03.242 : :00:45:03.242
00:49:39.810 : :00:49:39.810
00:54:35.063 : :00:54:35.063
01:03:16.167 : :01:03:16.001
01:07:13.821 : :01:07:13.821
01:11:18.775 : :01:11:18.774
01:19:17.503 : :01:19:17.503
01:27:15.897 : :01:27:15.897
01:34:30.665 : :01:34:30.665


BDRip Screenshots

A Street Cat Named Bob (2016)

A Street Cat Named Bob (2016)

A Street Cat Named Bob (2016)


BRRip Screenshots

A Street Cat Named Bob (2016)

A Street Cat Named Bob (2016)

A Street Cat Named Bob (2016)


BDRip 720p Screenshots

A Street Cat Named Bob (2016)

A Street Cat Named Bob (2016)

A Street Cat Named Bob (2016)


BDRip 1080p Screenshots

A Street Cat Named Bob (2016)

A Street Cat Named Bob (2016)

A Street Cat Named Bob (2016)


BRRip 720p Screenshots

A Street Cat Named Bob (2016)

A Street Cat Named Bob (2016)

A Street Cat Named Bob (2016)


Come Visit My Blog (•‿•)