A Wonderful Christmas Time (2014)

Posted By: JohnSmith
A Wonderful Christmas Time (2014)

A Wonderful Christmas Time (2014)
HDRip | AVI / XviD@2052 kb/s | 720x400 | 1h 25mn | 1.35 GB | English: AC3, 192 kb/s (2 ch)
WEB-DL 720p | AVI / XviD@3321 kb/s | 1280x718 | 1h 25mn | 2.11 GB | English: MP3, 192 kb/s (2 ch)
WEB-DL 1080p | MKV / AVC@5207 kb/s | 1912x1072 | 1h 25mn | 3.19 GB | English: AAC, 121 kb/s (2 ch) | Subtiltes: English
Genre: Comedy

Two weeks before Christmas, Noel is left home alone in Porthcawl, a sleepy seaside town in South Wales, and dumped by his long term girlfriend for another guy; a taller and more rugged alternative. Faced with the unknown, he turns to primal scream therapy with his self-taught therapist Simon and retreats to the past, reminiscing with his old school pal Steve. A chance encounter with Cherie, a disillusioned actress who has returned home to reflect on her past and present to begin a more fulfilled life, leads Noel to open up and share his passions. Their shared love of music, eighties movies, and all things Christmas encourages a celebratory spirit, and the possibility of a Happy New Year. Will the insecurities of recent break­ups, seasonal intoxication, and mis­communication conspire to ruin their fun or will they simply have a Wonderful Christmas Time?




General
Complete name : D:\Downloads\A.Wonderful.Christmas.Time.2015.HDRip.XviD.AC3-EVO\A.Wonderful.Christmas.Time.2015.HDRip.XviD.AC3-EVO.avi
Format : AVI
Format/Info : Audio Video Interleave
Format profile : OpenDML
Format settings : rec
File size : 1.35 GiB
Duration : 1h 25mn
Overall bit rate : 2 249 Kbps
Writing application : AVI-Mux GUI 1.17.8.3, Feb 16 201019:42:50

Video
ID : 0
Format : MPEG-4 Visual
Format profile : Advanced Simple@L5
Format settings, BVOP : 2
Format settings, QPel : No
Format settings, GMC : No warppoints
Format settings, Matrix : Default (H.263)
Muxing mode : Packed bitstream
Codec ID : XVID
Codec ID/Hint : XviD
Duration : 1h 25mn
Bit rate : 2 052 Kbps
Width : 720 pixels
Height : 400 pixels
Display aspect ratio : 16:9
Frame rate : 25.000 fps
Color space : YUV
Chroma subsampling : 4:2:0
Bit depth : 8 bits
Scan type : Progressive
Compression mode : Lossy
Bits/(Pixel*Frame) : 0.285
Stream size : 1.23 GiB (91%)
Writing library : XviD 66

Audio
ID : 1
Format : AC-3
Format/Info : Audio Coding 3
Mode extension : CM (complete main)
Format settings, Endianness : Big
Codec ID : 2000
Duration : 1h 25mn
Bit rate mode : Constant
Bit rate : 192 Kbps
Channel(s) : 2 channels
Channel positions : Front: L R
Sampling rate : 48.0 KHz
Compression mode : Lossy
Stream size : 118 MiB (9%)
Alignment : Aligned on interleaves
Interleave, duration : 64 ms (1.60 video frames)
Interleave, preload duratio : 192 ms
Title : AC3



General
Complete name : E:\FTP\A.Wonderful.Christmas.Time.2014.720p.WEB-DL.XviD.MP3-RARBG.avi
Format : AVI
Format/Info : Audio Video Interleave
Format profile : OpenDML
File size : 2.11 GiB
Duration : 1h 25mn
Overall bit rate : 3 529 Kbps
Movie name : RARBG.COM - A.Wonderful.Christmas.Time.2014.720p.WEB-DL.XviD.MP3-RARBG
Writing library : VirtualDub build 35491/release
Comment : RARBG.COM - A.Wonderful.Christmas.Time.2014.720p.WEB-DL.XviD.MP3-RARBG

Video
ID : 0
Format : MPEG-4 Visual
Format profile : Simple@L5
Format settings, BVOP : No
Format settings, QPel : No
Format settings, GMC : No warppoints
Format settings, Matrix : Default (H.263)
Codec ID : XVID
Codec ID/Hint : XviD
Duration : 1h 25mn
Bit rate : 3 321 Kbps
Width : 1 280 pixels
Height : 718 pixels
Display aspect ratio : 16:9
Frame rate : 25.000 fps
Color space : YUV
Chroma subsampling : 4:2:0
Bit depth : 8 bits
Scan type : Progressive
Compression mode : Lossy
Bits/(Pixel*Frame) : 0.145
Stream size : 1.99 GiB (94%)
Writing library : Lavc56.13.100

Audio
ID : 1
Format : MPEG Audio
Format version : Version 1
Format profile : Layer 3
Mode : Joint stereo
Mode extension : MS Stereo
Codec ID : 55
Codec ID/Hint : MP3
Duration : 1h 25mn
Bit rate mode : Constant
Bit rate : 192 Kbps
Channel(s) : 2 channels
Sampling rate : 48.0 KHz
Compression mode : Lossy
Stream size : 118 MiB (5%)
Alignment : Aligned on interleaves
Interleave, duration : 24 ms (0.60 video frame)
Interleave, preload duratio : 504 ms
Writing library : LAME3.99.5



General
Unique ID : 220813226950234370348044593525608879068 (0xA61F14A18C3995E29C9BFE4F2E6313DC)
Complete name : E:\FTP\A.Wonderful.Christmas.Time.2014.1080p.WEB-DL.AAC2.0.H264-RARBG.mkv
Format : Matroska
Format version : Version 4 / Version 2
File size : 3.19 GiB
Duration : 1h 25mn
Overall bit rate : 5 332 Kbps
Movie name : RARBG.COM - A.Wonderful.Christmas.Time.2014.1080p.WEB-DL.AAC2.0.H264-RARBG
Encoded date : UTC 2015-12-11 09:48:43
Writing application : mkvmerge v8.3.0 ('Over the Horizon') 64bit
Writing library : libebml v1.3.1 + libmatroska v1.4.2
Attachements : cover_land.jpg / small_cover.jpg / small_cover_land.jpg / cover.jpg

Video
ID : 1
Format : AVC
Format/Info : Advanced Video Codec
Format profile : High@L4
Format settings, CABAC : Yes
Format settings, ReFrames : 4 frames
Codec ID : V_MPEG4/ISO/AVC
Duration : 1h 25mn
Width : 1 912 pixels
Height : 1 072 pixels
Display aspect ratio : 16:9
Frame rate mode : Constant
Frame rate : 25.000 fps
Color space : YUV
Chroma subsampling : 4:2:0
Bit depth : 8 bits
Scan type : Progressive
Title : A.Wonderful.Christmas.Time.2014.1080p.WEB-DL.AAC2.0.H264-RARBG
Language : English
Default : Yes
Forced : No
Color range : Limited
Color primaries : BT.709
Transfer characteristics : BT.709
Matrix coefficients : BT.709

Audio
ID : 2
Format : AAC
Format/Info : Advanced Audio Codec
Format profile : LC
Codec ID : A_AAC
Duration : 1h 25mn
Channel(s) : 2 channels
Channel positions : Front: L R
Sampling rate : 48.0 KHz
Compression mode : Lossy
Title : A.Wonderful.Christmas.Time.2014.1080p.WEB-DL.AAC2.0.H264-RARBG
Language : English
Default : Yes
Forced : No

Text
ID : 3
Format : UTF-8
Codec ID : S_TEXT/UTF8
Codec ID/Info : UTF-8 Plain Text
Language : English
Default : Yes
Forced : No

Menu
00:00:00.000 : en:Chapter 1
00:08:11.000 : en:Chapter 2
00:13:45.000 : en:Chapter 3
00:21:15.000 : en:Chapter 4
00:29:12.000 : en:Chapter 5
00:35:25.000 : en:Chapter 6
00:42:29.000 : en:Chapter 7
00:50:28.000 : en:Chapter 8
00:57:41.000 : en:Chapter 9
01:08:42.000 : en:Chapter 10
01:15:55.000 : en:Chapter 11
01:23:05.000 : en:Chapter 12


Screenshots HDRip

A Wonderful Christmas Time (2014)

A Wonderful Christmas Time (2014)

A Wonderful Christmas Time (2014)


Screenshots WEB-DL 720p

A Wonderful Christmas Time (2014)

A Wonderful Christmas Time (2014)

A Wonderful Christmas Time (2014)


Screenshots WEB-DL 1080p

A Wonderful Christmas Time (2014)

A Wonderful Christmas Time (2014)

A Wonderful Christmas Time (2014)