Adam Newman: Fuzzies (2017)

Posted By: Tavaz
1080p (FullHD) / WEB-DL IMDb
Adam Newman: Fuzzies (2017)

Adam Newman: Fuzzies (2017)
WEB-DL | MKV | 1920x1080 | English | H264 @ 9760 kbps | E-AC-3 @ 224 kbps | 1 h 6 min | 4.60 GiB
Subtitles: English
Genre: Comedy

Adam Newman returns to Athens, GA for "Fuzzies," recorded at the Georgia Theatre where he used to work as a security guard. In his first hour long special, Adam dissects newly discovered Jetsons debauchery, obscure B-Horror movies, and gets downright dirty sharing some Presidential erotic fan fiction. Plus, Adam breaks new comedy ground by setting the record for World's Highest Mic Drop!

61d721ed2ff64c5eb0b6b7c3353e7412.mkv (4.6 GB)



General
Unique ID : 198730140852719855333054555200358042504 (0x9582086CECA6478EBA2BF04FFE71CB88)
Complete name : ./61d721ed2ff64c5eb0b6b7c3353e7412.mkv
Format : Matroska
Format version : Version 4 / Version 2
File size : 4.60 GiB
Duration : 1 h 6 min
Overall bit rate mode : Variable
Overall bit rate : 9 987 kb/s
Encoded date : UTC 2017-10-20 04:28:38
Writing application : mkvmerge v13.0.0 ('The Juggler') 64bit
Writing library : libebml v1.3.4 + libmatroska v1.4.5

Video
ID : 1
Format : AVC
Format/Info : Advanced Video Codec
Format profile : High@L4
Format settings : CABAC / 4 Ref Frames
Format settings, CABAC : Yes
Format settings, RefFrames : 4 frames
Codec ID : V_MPEG4/ISO/AVC
Duration : 1 h 6 min
Bit rate mode : Variable
Bit rate : 9 760 kb/s
Maximum bit rate : 15.0 Mb/s
Width : 1 920 pixels
Height : 1 080 pixels
Display aspect ratio : 16:9
Frame rate mode : Constant
Frame rate : 23.976 (24000/1001) FPS
Color space : YUV
Chroma subsampling : 4:2:0
Bit depth : 8 bits
Scan type : Progressive
Bits/(Pixel*Frame) : 0.196
Stream size : 4.50 GiB (98%)
Default : Yes
Forced : No
Color range : Limited
Color primaries : BT.709
Transfer characteristics : BT.709
Matrix coefficients : BT.709

Audio
ID : 2
Format : E-AC-3
Format/Info : Enhanced Audio Coding 3
Format settings, Endianness : Big
Codec ID : A_EAC3
Duration : 1 h 6 min
Bit rate mode : Constant
Bit rate : 224 kb/s
Channel(s) : 2 channels
Channel positions : Front: L R
Sampling rate : 48.0 kHz
Frame rate : 187.500 FPS (256 SPF)
Compression mode : Lossy
Stream size : 106 MiB (2%)
Language : English
Service kind : Complete Main
Default : Yes
Forced : No

Text
ID : 3
Format : UTF-8
Codec ID : S_TEXT/UTF8
Codec ID/Info : UTF-8 Plain Text
Duration : 1 h 5 min
Bit rate : 125 b/s
Count of elements : 1856
Stream size : 60.7 KiB (0%)
Language : English
Default : No
Forced : No





Adam Newman: Fuzzies (2017)


Adam Newman: Fuzzies (2017)


Adam Newman: Fuzzies (2017)


Adam Newman: Fuzzies (2017)


Adam Newman: Fuzzies (2017)