Adventures Of A Taxi Driver (1976)

Posted By: Tavaz
720p (HD) / WEB-DL IMDb
Adventures Of A Taxi Driver (1976)

Adventures Of A Taxi Driver (1976)
WEB-DL | MKV | 1280x720 | English | H264 @ 4428 kbps | E-AC-3 @ 224 kbps | 1 h 25 min | 2.79 GiB
Genre: Comedy

Joe North is a London taxi driver who manages to get himself into any number of sexual situations with various women.

e8123af991c84d47b263c13fc45930d3.mkv (2.8 GB)



General
Unique ID : 263009598269656700074234891774867337165 (0xC5DDCE5C5D745B571052B8B61A08EFCD)
Complete name : ./e8123af991c84d47b263c13fc45930d3.mkv
Format : Matroska
Format version : Version 4 / Version 2
File size : 2.79 GiB
Duration : 1 h 25 min
Overall bit rate mode : Variable
Overall bit rate : 4 655 kb/s
Encoded date : UTC 2018-02-11 18:31:20
Writing application : mkvmerge v19.0.0 ('Brave Captain') 64-bit
Writing library : libebml v1.3.5 + libmatroska v1.4.8

Video
ID : 1
Format : AVC
Format/Info : Advanced Video Codec
Format profile : High@L3.1
Format settings : CABAC / 5 Ref Frames
Format settings, CABAC : Yes
Format settings, RefFrames : 5 frames
Codec ID : V_MPEG4/ISO/AVC
Duration : 1 h 25 min
Bit rate mode : Variable
Bit rate : 4 429 kb/s
Maximum bit rate : 4 500 kb/s
Width : 1 280 pixels
Height : 720 pixels
Display aspect ratio : 16:9
Frame rate mode : Constant
Frame rate : 25.000 FPS
Color space : YUV
Chroma subsampling : 4:2:0
Bit depth : 8 bits
Scan type : Progressive
Bits/(Pixel*Frame) : 0.192
Stream size : 2.65 GiB (95%)
Writing library : x264 core 148 r2623 d5b2374
Encoding settings : cabac=1 / ref=5 / deblock=1:-1:-1 / analyse=0x3:0x133 / me=umh / subme=9 / psy=1 / psy_rd=1.00:0.15 / mixed_ref=1 / me_range=24 / chroma_me=1 / trellis=2 / 8x8dct=1 / cqm=0 / deadzone=21,11 / fast_pskip=1 / chroma_qp_offset=-3 / threads=22 / lookahead_threads=3 / sliced_threads=0 / nr=150 / decimate=1 / interlaced=0 / bluray_compat=0 / constrained_intra=0 / bframes=8 / b_pyramid=2 / b_adapt=2 / b_bias=0 / direct=3 / weightb=1 / open_gop=0 / weightp=2 / keyint=125 / keyint_min=63 / scenecut=0 / intra_refresh=0 / rc_lookahead=125 / rc=crf / mbtree=1 / crf=18.0 / qcomp=0.60 / qpmin=0 / qpmax=69 / qpstep=4 / vbv_maxrate=4500 / vbv_bufsize=17500 / crf_max=0.0 / nal_hrd=vbr / filler=0 / ip_ratio=1.40 / aq=3:1.00
Default : Yes
Forced : No
Color range : Limited
Color primaries : BT.709
Transfer characteristics : BT.709
Matrix coefficients : BT.709

Audio
ID : 2
Format : E-AC-3
Format/Info : Enhanced Audio Coding 3
Format settings, Endianness : Big
Codec ID : A_EAC3
Duration : 1 h 25 min
Bit rate mode : Constant
Bit rate : 224 kb/s
Channel(s) : 2 channels
Channel positions : Front: L R
Sampling rate : 48.0 kHz
Frame rate : 187.500 FPS (256 SPF)
Compression mode : Lossy
Stream size : 137 MiB (5%)
Language : English
Service kind : Complete Main
Default : Yes
Forced : No





Adventures Of A Taxi Driver (1976)


Adventures Of A Taxi Driver (1976)


Adventures Of A Taxi Driver (1976)


Adventures Of A Taxi Driver (1976)


Adventures Of A Taxi Driver (1976)