Tags
Language
Tags

Smithsonian Channel - Aerial America: Boston 24 (2019)

Posted By: notbanned
1080p (FullHD) / HDTV
Smithsonian Channel - Aerial America: Boston 24 (2019)

Smithsonian Channel - Aerial America: Boston 24 (2019)
HDTV 720p | MKV | 1280x720 | AVC@3200 Kbps | English AC3@192 Kbps | 2 channels | 51 min 0 s | 1.21 GiB
HDTV 1080p | MKV | 1920x1080 | AVC@4500 Kbps | English AC3@192 Kbps | 2 channels | 51 min 0 s | 1.67 GiB
Genre: Documentary

It was founded by religious exiles and made famous by a massacre, a tea party, and a nighttime horse-ride into history. Boston truly is a revolutionary city and a hub of constant change–something the New Englanders who call it home know well, from the battles their ancestors waged against British forces in the fight for America's freedom to the dazzling new neighborhoods created out of marshes and swamps. Celebrate a city of many firsts and see how it continues to lead a path into America's future.

General
Unique ID : 285570156160373386554563835325227384109 (0xD6D6CFBE48D16D7179CD0A7F30A6BD2D)
Complete name : Aerial.America-Boston.24.2019.720p.mkv
Format : Matroska
Format version : Version 4 / Version 2
File size : 1.21 GiB
Duration : 51 min 0 s
Overall bit rate : 3 394 kb/s

Video
ID : 1
Format : AVC
Format/Info : Advanced Video Codec
Format profile : Main@L3.2
Format settings, CABAC : Yes
Format settings, ReFrames : 2 frames
Codec ID : V_MPEG4/ISO/AVC
Duration : 51 min 0 s
Bit rate mode : Constant
Bit rate : 3 200 kb/s
Width : 1 280 pixels
Height : 720 pixels
Display aspect ratio : 16:9
Frame rate mode : Constant
Frame rate : 29.970 (30000/1001) FPS
Color space : YUV
Chroma subsampling : 4:2:0
Bit depth : 8 bits
Scan type : Progressive
Bits/(Pixel*Frame) : 0.116
Stream size : 1.14 GiB (94%)
Language : English
Default : Yes
Forced : No

Audio
ID : 2
Format : AC-3
Format/Info : Audio Coding 3
Format settings, Endianness : Big
Codec ID : A_AC3
Duration : 51 min 0 s
Bit rate mode : Constant
Bit rate : 192 kb/s
Channel(s) : 2 channels
Channel positions : Front: L R
Sampling rate : 48.0 kHz
Frame rate : 31.250 FPS (1536 spf)
Bit depth : 16 bits
Compression mode : Lossy
Stream size : 70.0 MiB (6%)
Language : English
Service kind : Complete Main
Default : Yes
Forced : No

Text
ID : 3
Format : UTF-8
Codec ID : S_TEXT/UTF8
Codec ID/Info : UTF-8 Plain Text
Duration : 50 min 55 s
Bit rate : 112 b/s
Count of elements : 956
Stream size : 41.9 KiB (0%)
Language : English
Default : No
Forced : No


General
Unique ID : 325497026778595517153334098369066847788 (0xF4E072730F9BE46C37CAF396B7284E2C)
Complete name : Aerial.America-Boston.24.2019.1080p.mkv
Format : Matroska
Format version : Version 4 / Version 2
File size : 1.67 GiB
Duration : 51 min 0 s
Overall bit rate : 4 694 kb/s

Video
ID : 1
Format : AVC
Format/Info : Advanced Video Codec
Format profile : High@L4
Format settings, CABAC : Yes
Format settings, ReFrames : 2 frames
Codec ID : V_MPEG4/ISO/AVC
Duration : 51 min 0 s
Bit rate mode : Constant
Bit rate : 4 500 kb/s
Width : 1 920 pixels
Height : 1 080 pixels
Display aspect ratio : 16:9
Frame rate mode : Constant
Frame rate : 29.970 (30000/1001) FPS
Color space : YUV
Chroma subsampling : 4:2:0
Bit depth : 8 bits
Scan type : Progressive
Bits/(Pixel*Frame) : 0.072
Stream size : 1.60 GiB (96%)
Language : English
Default : Yes
Forced : No

Audio
ID : 2
Format : AC-3
Format/Info : Audio Coding 3
Format settings, Endianness : Big
Codec ID : A_AC3
Duration : 51 min 0 s
Bit rate mode : Constant
Bit rate : 192 kb/s
Channel(s) : 2 channels
Channel positions : Front: L R
Sampling rate : 48.0 kHz
Frame rate : 31.250 FPS (1536 spf)
Bit depth : 16 bits
Compression mode : Lossy
Stream size : 70.0 MiB (4%)
Language : English
Service kind : Complete Main
Default : Yes
Forced : No

Text
ID : 3
Format : UTF-8
Codec ID : S_TEXT/UTF8
Codec ID/Info : UTF-8 Plain Text
Duration : 50 min 55 s
Bit rate : 112 b/s
Count of elements : 956
Stream size : 41.9 KiB (0%)
Language : English
Default : No
Forced : No


Screenshots 720p:

Smithsonian Channel - Aerial America: Boston 24 (2019)

Smithsonian Channel - Aerial America: Boston 24 (2019)

Smithsonian Channel - Aerial America: Boston 24 (2019)

Smithsonian Channel - Aerial America: Boston 24 (2019)

Screenshots 1080p: