Subcategories

Alice attraverso lo specchio (2016)

Posted By: JohnSmith
Alice attraverso lo specchio (2016)

Alice attraverso lo specchio / Alice Through the Looking Glass (2016)
BDRip 720p | MKV / AVC@5306 kb/s | 1280x692 | 1h 52mn | 6.57 GB
Italian: DTS, 1509 kb/s (6 ch) | Subtitles: Italian (forced, full)
Genre: Adventure | Family | Fantasy

Alice Kingsleigh (Mia Wasikowska) ha trascorso gli ultimi anni seguendo le impronte paterne e navigando per il mare aperto. Al suo rientro a Londra, si ritrova ad attraversare uno specchio magico che la riporta nel Sottomondo dove incontra nuovamente i suoi amici il Bianconiglio, il Brucaliffo, lo Stregatto e il Cappellaio Matto (Johnny Depp), che sembra non essere più in sé. Il Cappellaio ha perso la sua Moltezza, così Mirana (Anne Hathaway) manda Alice alla ricerca della Chronosphere, un oggetto metallico dalla forma sferica custodito nella stanza del Grand Clock che regola il trascorrere del tempo. Tornando indietro nel tempo, incontra amici – e nemici – in diversi momenti della loro vita e inizia una pericolosa corsa per salvare il Cappellaio prima che sia troppo tardi.




General
Unique ID : 221918126925850385348771159879595368155 (0xA6F3E067DDE9775390B011A8D4E09EDB)
Complete name : A:\Alice.Attraverso.Lo.Specchio.2016.iTA.Bluray.720p.x264-HDi.mkv
Format : Matroska
Format version : Version 4 / Version 2
File size : 5.38 GiB
Duration : 1 h 52 min
Overall bit rate : 6 817 kb/s
Encoded date : UTC 2016-11-01 12:06:35
Writing application : mkvmerge v8.3.0 ('Over the Horizon') 64bit
Writing library : libebml v1.3.1 + libmatroska v1.4.2

Video
ID : 1
Format : AVC
Format/Info : Advanced Video Codec
Format profile : High@L3.1
Format settings, CABAC : Yes
Format settings, ReFrames : 4 frames
Codec ID : V_MPEG4/ISO/AVC
Duration : 1 h 52 min
Bit rate : 5 306 kb/s
Width : 1 280 pixels
Height : 692 pixels
Display aspect ratio : 1.85:1
Frame rate mode : Constant
Frame rate : 23.976 (24000/1001) FPS
Color space : YUV
Chroma subsampling : 4:2:0
Bit depth : 8 bits
Scan type : Progressive
Bits/(Pixel*Frame) : 0.250
Stream size : 4.19 GiB (78%)
Writing library : x264 core 146 r2538 121396c
Encoding settings : cabac=1 / ref=3 / deblock=1:-2:-1 / analyse=0x3:0x113 / me=hex / subme=7 / psy=1 / psy_rd=1.00:0.00 / mixed_ref=1 / me_range=16 / chroma_me=1 / trellis=1 / 8x8dct=1 / cqm=0 / deadzone=21,11 / fast_pskip=1 / chroma_qp_offset=-2 / threads=12 / lookahead_threads=2 / sliced_threads=0 / nr=0 / decimate=0 / interlaced=0 / bluray_compat=0 / constrained_intra=0 / bframes=3 / b_pyramid=2 / b_adapt=1 / b_bias=0 / direct=1 / weightb=1 / open_gop=0 / weightp=2 / keyint=240 / keyint_min=24 / scenecut=40 / intra_refresh=0 / rc_lookahead=40 / rc=2pass / mbtree=1 / bitrate=5306 / ratetol=1.0 / qcomp=0.60 / qpmin=0 / qpmax=69 / qpstep=4 / cplxblur=20.0 / qblur=0.5 / ip_ratio=1.40 / aq=1:1.00
Default : Yes
Forced : No

Audio
ID : 2
Format : DTS
Format/Info : Digital Theater Systems
Mode : 16
Format settings, Endianness : Big
Codec ID : A_DTS
Duration : 1 h 52 min
Bit rate mode : Constant
Bit rate : 1 509 kb/s
Channel(s) : 6 channels
Channel positions : Front: L C R, Side: L R, LFE
Sampling rate : 48.0 kHz
Frame rate : 93.750 FPS (512 spf)
Bit depth : 24 bits
Compression mode : Lossy
Stream size : 1.19 GiB (22%)
Title : DTS iTA
Language : Italian
Default : No
Forced : No

Text #1
ID : 3
Format : UTF-8
Codec ID : S_TEXT/UTF8
Codec ID/Info : UTF-8 Plain Text
Duration : 1 h 43 min
Bit rate : 0 b/s
Count of elements : 5
Stream size : 123 Bytes (0%)
Title : FORCED iTA
Language : Italian
Default : Yes
Forced : Yes

Text #2
ID : 4
Format : UTF-8
Codec ID : S_TEXT/UTF8
Codec ID/Info : UTF-8 Plain Text
Duration : 1 h 51 min
Bit rate : 41 b/s
Count of elements : 1389
Stream size : 33.7 KiB (0%)
Title : REGULAR iTA
Language : Italian
Default : No
Forced : No

Menu
00:00:00.000 : en:00:00:00.000
00:04:33.190 : en:00:04:33.190
00:07:24.235 : en:00:07:24.235
00:12:07.435 : en:00:12:07.435
00:16:39.790 : en:00:16:39.790
00:22:47.616 : en:00:22:47.616
00:24:59.623 : en:00:24:59.623
00:30:18.233 : en:00:30:18.233
00:35:29.794 : en:00:35:29.794
00:41:32.990 : en:00:41:32.990
00:45:20.051 : en:00:45:20.051
00:51:35.676 : en:00:51:35.676
00:54:11.039 : en:00:54:11.039
00:57:40.123 : en:00:57:40.123
01:04:18.521 : en:01:04:18.521
01:09:18.988 : en:01:09:18.988
01:12:46.279 : en:01:12:46.279
01:18:07.391 : en:01:18:07.391
01:23:20.245 : en:01:23:20.245
01:27:34.749 : en:01:27:34.749
01:32:15.947 : en:01:32:15.947
01:36:40.461 : en:01:36:40.461
01:40:12.590 : en:01:40:12.590
01:43:14.814 : en:01:43:14.814




Screenshots

Alice attraverso lo specchio (2016)

Alice attraverso lo specchio (2016)

Alice attraverso lo specchio (2016)